↑↓torrent.by
Поиск
Логин:  Регистрация
Пароль:

Иные [01x01-02 из 06] (2023) WEBRip-HEVC 2160p | 4K | SDR

download Скачать торрент-файл   magnet Магнитная ссылка Размер: 8.91 GB Добавлен: 2024-01-25 17:00
Пиры будут получены из сети DHT
Последний сидер был замечен 2024-02-11 15:48
Информация о фильме Оригинальное название: Иные Год выпуска: 2023 Жанр: Фэнтези, приключения Выпущено: Россия, Лунапарк, Плюс Студия Режиссер: Владимир Ракша В ролях: Ирина Мартыненко, Илья Маланин, Вольфганг Черни, Алексей Серебряков, Линда Лапиньш, Николай Фоменко, Евгения Симонова, Кирилл Нагиев, Денис Ткачев, Игорь Усачев О фильме: Молодой следователь Лихолетов берётся за расследование необычного происшествия в центре города, причиной которого, как будто, стала хрупкая Аня. Неведомая сила остановила столкновение трамвая и автомобиля, но от нее пострадали десятки людей. Лихолетов уверен, что девушка причастна к произошедшему и наделена особыми способностями. Одновременно об Анне узнает могущественный и загадочный иностранец Нойманн, который уже давно ищет подобных себе одаренных уникумов по всей Европе. Их роковая встреча может привести к мировой катастрофе или стать началом великой истории любви. Продолжительность: ~00:52:00 Язык: Русский Файл Формат: MKV Качество: WEBRip-HEVC 2160p | 4K | SDR Видео: MPEG-H HEVC, ~ 11.6 Mбит/с, 3840x1634, 8 бит Аудио: E-AC3, 6 ch, 448 Кбит/с Субтитры: Русские (Full, SDH)
[+] MIGeneral Unique ID : 236361292628817465945493683749348479877 (0xB1D1877432B2A80A6EE6F72A59109385) Complete name : F:TorrentsInye.S01.2160p.WEB-DL.HEVCInye.S01E01.2160p.WEB-DL.HEVC.mkv Format : Matroska Format version : Version 4 File size : 4.41 GiB Duration : 52 min 15 s Overall bit rate : 12.1 Mb/s Frame rate : 25.000 FPS Encoded date : 2024-01-24 21:09:06 UTC Writing application : mkvmerge v81.0 ('Milliontown') 64-bit Writing library : libebml v1.4.4 + libmatroska v1.7.1 Video ID : 1 Format : HEVC Format/Info : High Efficiency Video Coding Format profile : Main@L5@High Codec ID : V_MPEGH/ISO/HEVC Duration : 52 min 15 s Bit rate : 11.6 Mb/s Width : 3 840 pixels Height : 1 634 pixels Display aspect ratio : 2.35:1 Frame rate mode : Constant Frame rate : 25.000 FPS Color space : YUV Chroma subsampling : 4:2:0 Bit depth : 8 bits Bits/(Pixel*Frame) : 0.074 Stream size : 4.25 GiB (96%) Writing library : x265 3.5: 8bit Encoding settings : cpuid=1111039 / frame-threads=5 / wpp / no-pmode / no-pme / no-psnr / no-ssim / log-level=2 / input-csp=1 / input-res=3840x1634 / interlace=0 / total-frames=0 / level-idc=0 / high-tier=1 / uhd-bd=0 / ref=2 / no-allow-non-conformance / no-repeat-headers / annexb / no-aud / no-hrd / info / hash=0 / no-temporal-layers / open-gop / min-keyint=100 / keyint=100 / gop-lookahead=0 / bframes=4 / b-adapt=2 / b-pyramid / bframe-bias=0 / rc-lookahead=25 / lookahead-slices=4 / scenecut=40 / hist-scenecut=0 / radl=0 / no-splice / no-intra-refresh / ctu=64 / min-cu-size=8 / rect / no-amp / max-tu-size=32 / tu-inter-depth=1 / tu-intra-depth=1 / limit-tu=0 / rdoq-level=2 / dynamic-rd=0.00 / no-ssim-rd / signhide / no-tskip / nr-intra=0 / nr-inter=0 / no-constrained-intra / strong-intra-smoothing / max-merge=3 / limit-refs=3 / limit-modes / me=3 / subme=3 / merange=57 / temporal-mvp / no-frame-dup / no-hme / weightp / no-weightb / no-analyze-src-pics / deblock=0:0 / sao / no-sao-non-deblock / rd=4 / selective-sao=4 / no-early-skip / rskip / no-fast-intra / no-tskip-fast / no-cu-lossless / no-b-intra / no-splitrd-skip / rdpenalty=0 / psy-rd=2.00 / psy-rdoq=1.00 / no-rd-refine / no-lossless / cbqpoffs=0 / crqpoffs=0 / rc=abr / bitrate=11600 / qcomp=0.60 / qpstep=4 / stats-write=0 / stats-read=2 / cplxblur=20.0 / qblur=0.5 / vbv-maxrate=17400 / vbv-bufsize=46400 / vbv-init=0.8 / min-vbv-fullness=50.0 / max-vbv-fullness=80.0 / ipratio=1.40 / pbratio=1.30 / aq-mode=2 / aq-strength=1.00 / cutree / zone-count=0 / no-strict-cbr / qg-size=32 / no-rc-grain / qpmax=69 / qpmin=0 / no-const-vbv / sar=1 / overscan=0 / videoformat=5 / range=0 / colorprim=1 / transfer=1 / colormatrix=1 / chromaloc=0 / display-window=0 / cll=0,0 / min-luma=0 / max-luma=255 / log2-max-poc-lsb=8 / vui-timing-info / vui-hrd-info / slices=1 / no-opt-qp-pps / no-opt-ref-list-length-pps / no-multi-pass-opt-rps / scenecut-bias=0.05 / hist-threshold=0.03 / no-opt-cu-delta-qp / no-aq-motion / no-hdr10 / no-hdr10-opt / no-dhdr10-opt / no-idr-recovery-sei / analysis-reuse-level=0 / analysis-save-reuse-level=0 / analysis-load-reuse-level=0 / scale-factor=0 / refine-intra=0 / refine-inter=0 / refine-mv=1 / refine-ctu-distortion=0 / no-limit-sao / ctu-info=0 / no-lowpass-dct / refine-analysis-type=0 / copy-pic=1 / max-ausize-factor=1.0 / no-dynamic-refine / no-single-sei / no-hevc-aq / no-svt / no-field / qp-adaptation-range=1.00 / scenecut-aware-qp=0conformance-window-offsets / right=0 / bottom=0 / decoder-max-rate=0 / no-vbv-live-multi-pass Language : English Default : Yes Forced : No Color range : Limited Color primaries : BT.709 Transfer characteristics : BT.709 Matrix coefficients : BT.709 Audio ID : 2 Format : E-AC-3 Format/Info : Enhanced AC-3 Commercial name : Dolby Digital Plus Codec ID : A_EAC3 Duration : 52 min 15 s Bit rate mode : Constant Bit rate : 448 kb/s Channel(s) : 6 channels Channel layout : L R C LFE Ls Rs Sampling rate : 48.0 kHz Frame rate : 31.250 FPS (1536 SPF) Bit depth : 32 bits Compression mode : Lossy Stream size : 167 MiB (4%) Title : "Русский 5.1" Language : Russian Service kind : Complete Main Default : Yes Forced : No Text #1 ID : 3 Format : UTF-8 Codec ID : S_TEXT/UTF8 Codec ID/Info : UTF-8 Plain Text Duration : 50 min 15 s Bit rate : 59 b/s Frame rate : 0.148 FPS Count of elements : 447 Stream size : 22.0 KiB (0%) Title : "Русские" Language : Russian Default : No Forced : No Text #2 ID : 4 Format : UTF-8 Codec ID : S_TEXT/UTF8 Codec ID/Info : UTF-8 Plain Text Duration : 50 min 47 s Bit rate : 73 b/s Frame rate : 0.191 FPS Count of elements : 581 Stream size : 27.5 KiB (0%) Title : "Русские (для слабослышащих)" Language : Russian Default : No Forced : No
[+] Скриншоты

Всего файлов в раздаче: 2 
[NOOBDL]Inye.S01E01.2160p.WEB-DL.HEVC.mkv4.41 GB
[NOOBDL]Inye.S01E02.2160p.WEB-DL.HEVC.mkv4.50 GB

Похожие раздачи по запросу - Иные
2024-02-25 magnet Иные [S01] (2023) WEBRip-AVC от Generalfilm | КПК 1К1.39 GB ↑ 0 ↓ 0
2024-02-23 magnet Иные [S01] (2023) WEBRip-HEVC 720p от ExKinoRay 1К9.92 GB ↑ 0 ↓ 0
2024-02-23 magnet Иные [S01] (2023) WEBRip 1080p от ExKinoRay 15.00 GB ↑ 1 ↓ 0
2024-02-22 magnet Иные [S01] (2023) WEBRip-AVC от Files-х 1К5.51 GB ↑ 0 ↓ 0
2024-02-22 magnet Иные [S01] (2023) WEBRip 1К4.49 GB ↑ 0 ↓ 0
2024-02-22 magnet Иные [S01] (2023) WEBRip-HEVC 2160p | 4K | SDR 26.04 GB ↑ 0 ↓ 0
2024-02-15 magnet Иные [01-05 из 06] (2023) WEBRip-AVC от Files-х 4.58 GB ↑ 0 ↓ 0

Комментарии


Зарегистрируйтесь чтобы добавить комментарий
Торрент клиент
byTorrent - программа для загрузки торрент-файлов.

Скачать byTorrent.exe (1,5 МБ)

Скачать byTorrent.zip (0,6 МБ)

Поддержи torrent.by
российских рублей
(300 российских рублей это 4$)

Обратная связь rss

End game ©