↑↓torrent.by
Поиск
Логин:  Регистрация
Пароль:

Догмен / Dogman (2023) WEB-DLRip-AVC от DoMiNo & селезень | D

download Скачать торрент-файл   magnet Магнитная ссылка Размер: 1.56 GB Добавлен: 2024-01-25 17:00
Пиры будут получены из сети DHT
Последний сидер был замечен 2024-02-24 10:06
Информация о фильме Название: Догмен Оригинальное название: Dogman Год выхода: 2023 Жанр: боевик Режиссер: Люк Бессон В ролях: Калеб Лэндри Джонс, Джоджо Т. Гиббс, Кристофер Денэм, Клеменс Шик, Джон Чарльз Агилар, Грэйс Пальма, Ирис Бри, Мариза Беренсон, Lincoln Powell, Alexander Settineri О фильме: Он лучше всех на свете понимает собак. А те готовы выполнять любые его задания - украсть, припугнуть и даже приготовить блинчики. Догмен - не типичный супергерой с обложки комиксов. Его не волнуют проблемы людей, важно лишь одно - довольна ли стая. Но он единственный командует «взять», когда город прибирает к рукам влиятельный наркобарон. Страна: Франция Студия: Luc Besson Production Продолжительность: 01:50:18 Перевод: Дублированный | МОСФИЛЬМ-МАСТЕР Субтитры: Русские (Full) Файл Формат: Matroska Качество: WEB-DLRip-AVC Видео: 1024x428 at 24.000 fps, x264@L4.1, ~1580 kbps Аудио: AC3, 6 ch, ~448 kbps - | Русский | Формат субтитров: softsub (SRT) ***Рип от: -=DoMiNo=-
[+] M/IGeneral Unique ID : 86808266015230885799073938376763533577 (0x414EA9F4F378DBE42FC843B8A87E6909) Complete name : I:Dogman.2023.DUB.WEB-DLRip.x264.seleZen.mkv Format : Matroska Format version : Version 4 File size : 1.56 GiB Duration : 1 h 50 min Overall bit rate : 2 030 kb/s Frame rate : 24.000 FPS Movie name : Dogman.2023.DUB.WEB-DLRip.x264.seleZen Encoded date : 2024-01-25 07:11:59 UTC Writing application : mkvmerge v82.0 ('I'm The President') 64-bit Writing library : libebml v1.4.5 + libmatroska v1.7.1 Cover : Yes Attachments : cover.jpg / small_cover.jpg Video ID : 1 Format : AVC Format/Info : Advanced Video Codec Format profile : High@L4.1 Format settings : CABAC / 14 Ref Frames Format settings, CABAC : Yes Format settings, Reference : 14 frames Codec ID : V_MPEG4/ISO/AVC Duration : 1 h 50 min Bit rate : 1 580 kb/s Width : 1 024 pixels Height : 428 pixels Display aspect ratio : 2.40:1 Frame rate mode : Constant Frame rate : 24.000 FPS Color space : YUV Chroma subsampling : 4:2:0 Bit depth : 8 bits Scan type : Progressive Bits/(Pixel*Frame) : 0.150 Stream size : 1.22 GiB (78%) Title : -=DoMiNo=- Writing library : x264 core 164 r3173 -DoMiNo Encoding settings : cabac=1 / ref=14 / deblock=1:-2:-1 / analyse=0x3:0x133 / me=umh / subme=10 / psy=1 / psy_rd=1.00:0.15 / mixed_ref=1 / me_range=32 / chroma_me=1 / trellis=2 / 8x8dct=1 / cqm=0 / deadzone=21,11 / fast_pskip=0 / chroma_qp_offset=-3 / threads=17 / lookahead_threads=3 / sliced_threads=0 / nr=0 / decimate=0 / interlaced=0 / bluray_compat=0 / constrained_intra=0 / bframes=12 / b_pyramid=2 / b_adapt=2 / b_bias=0 / direct=1 / weightb=1 / open_gop=0 / weightp=2 / keyint=250 / keyint_min=24 / scenecut=40 / intra_refresh=0 / rc_lookahead=60 / rc=crf / mbtree=0 / crf=18.0 / qcomp=0.60 / qpmin=0 / qpmax=69 / qpstep=4 / vbv_maxrate=50000 / vbv_bufsize=62500 / crf_max=0.0 / nal_hrd=none / filler=0 / ip_ratio=1.40 / pb_ratio=1.30 / aq=1:0.90 Language : English Default : Yes Forced : No Audio ID : 2 Format : AC-3 Format/Info : Audio Coding 3 Commercial name : Dolby Digital Codec ID : A_AC3 Duration : 1 h 50 min Bit rate mode : Constant Bit rate : 448 kb/s Channel(s) : 6 channels Channel layout : L R C LFE Ls Rs Sampling rate : 48.0 kHz Frame rate : 31.250 FPS (1536 SPF) Compression mode : Lossy Stream size : 353 MiB (22%) Title : Dub (МОСФИЛЬМ-МАСТЕР) Language : Russian Service kind : Complete Main Default : Yes Forced : No Text ID : 3 Format : UTF-8 Codec ID : S_TEXT/UTF8 Codec ID/Info : UTF-8 Plain Text Duration : 1 h 43 min Bit rate : 73 b/s Frame rate : 0.209 FPS Count of elements : 1296 Stream size : 55.9 KiB (0%) Title : Full Language : Russian Default : No Forced : No
Релиз: Присоединяйся к: Кликай на баннеры.

Всего файлов в раздаче: 1 
Dogman.2023.DUB.WEB-DLRip.x264.seleZen.mkv1.56 GB

Похожие раздачи по запросу - Догмен
2024-02-12 magnet Догмен / Dogman (2023) WEB-DL 2160p | 4K | HDR | Dolby Vision | D, A 16.52 GB ↑ 1 ↓ 0
2024-02-05 magnet Догмен / Dogman (2023) BDRip от toxics | D, A 2.18 GB ↑ 1 ↓ 0
2024-02-03 magnet Догмен / Dogman (2023) HDRip-AVC от ExKinoRay | D 744.86 MB ↑ 0 ↓ 0
2024-02-03 magnet Догмен / Dogman (2023) BDRip 1080p от ExKinoRay | D, A 8.69 GB ↑ 0 ↓ 0
2024-02-01 magnet Догмен / Dogman (Люк Бессон) [2023, боевик, WEB-DLRip-AVC] [Без цензуры] Dub (Мосфильм-Мастер) 2.18 GB ↑ 1 ↓ 0
2024-02-01 magnet Догмен / Dogman (2023) BDRip 1080p от Generalfilm | D 9.72 GB ↑ 0 ↓ 0
2024-01-29 magnet Догмен / Dogman (2023) BDRip-AVC от New-Team | D 2.05 GB ↑ 0 ↓ 0

Комментарии


Зарегистрируйтесь чтобы добавить комментарий
Торрент клиент
byTorrent - программа для загрузки торрент-файлов.

Скачать byTorrent.exe (1,5 МБ)

Скачать byTorrent.zip (0,6 МБ)

Поддержи torrent.by
российских рублей
(300 российских рублей это 4$)

Обратная связь rss

End game ©