↑↓torrent.by
Поиск
Логин:  Регистрация
Пароль:

Миссия «Серенити» / Serenity (2005) BDRip 1080p | D, P, P2, A

download Скачать торрент-файл   magnet Магнитная ссылка Размер: 16.47 GB Добавлен: 2024-01-26 05:00
Пиры будут получены из сети DHT
Последний сидер был замечен 2024-01-26 05:00
Миссия Серенити Serenity «Хорошие, плохие, злые» Год выпуска: 2005 Страна: США Студия: Universal Pictures, Barry Mendel Productions Жанр: фантастика, приключения, боевик Продолжительность: 01:59:02 Перевод: Профессиональный (полное дублирование), Профессиональный (многоголосый, закадровый), Профессиональный (двухголосый, закадровый), Авторский (одноголосый, закадровый) Режиссер: Джосс Уидон В ролях: Нэйтан Филлион, Джина Торрес, Алан Тьюдик, Морена Баккарин, Адам Болдуин, Джуэл Стэйт, Шон Маэр, Саммер Глау, Рон Гласс, Чиветель Эджиофор Описание: Космический «морской волк» и ветеран Гражданской Галактической войны Малькольм «Мэл» Рейнольдс — теперь всего лишь капитан транспортного корабля. Когда они взяли на борт пассажиров — молодого доктора и его странную сестру с телепатическими способностями, ни он, ни его товарищи не предполагали, в какую историю ввяжутся. Спасаясь сразу от нескольких могущественных врагов — и от военных сил тоталитарного Вселенского Альянса, и от ужасных каннибалов Жнецов, команда корабля даже не догадывалась, какая угроза скрывается на борту «Серенити». Кодек: H264 Качество: BDRip 1080p Видео: MPEG-4 AVC, 1920х818, 13600 Кбит/с, 23.976 fps Аудио 1: Русский, E-AC3, 6 ch, 640 Кбит/с Дубляж, Amazon Аудио 2: Русский, AC3, 6 ch, 640 Кбит/с Многоголосый закадровый, HDRezka Studio Аудио 3: Русский, АС3, 6 ch, 640 Кбит/с Двухголосый закадровый, Tycoon Аудио 4: Русский, АС3, 6 ch, 640 Кбит/с Одноголосый закадровый, А. Гаврилов Аудио 5: Русский, АС3, 6 ch, 640 Кбит/с Одноголосый закадровый, Ю. Сербин Аудио 6: Русский, АС3, 6 ch, 640 Кбит/с Одноголосый закадровый, В. Горчаков Аудио 7: Русский, АС3, 6 ch, 640 Кбит/с Одноголосый закадровый, Е. Гаевский Аудио 8: Русский, АС3, 6 ch, 640 Кбит/с Одноголосый закадровый, М. Яроцкий Аудио 9: Русский, АС3, 6 ch, 448 Кбит/с Одноголосый закадровый, В. Королев Аудио 10: Английский, АС3, 6 ch, 640 Кбит/с Оригинал Субтитры: Русские, английские Главы: Есть
[+] Инфо файл x264 : frame I:1274 Avg QP:16.12 size:191157 x264 : frame P:43427 Avg QP:18.07 size:104939 x264 : frame B:126549 Avg QP:20.06 size: 57965 Общее Уникальный идентификатор : 205474367028752374023026508502359009996 (0x9A94EC72C8C50593A9AC7A67025EEACC) Полное имя : F:Миссия Серенити (2005) BDRip 1080p.mkv Формат : Matroska Версия формата : Version 2 Размер файла : 16,5 Гбайт Продолжительность : 1 ч. 59 м. Общий поток : 19,8 Мбит/сек Дата кодирования : UTC 2024-01-25 02:23:07 Программа кодирования : mkvmerge v5.8.0 ('No Sleep / Pillow') built on Sep 2 2012 15:37:04 Библиотека кодирования : libebml v1.2.3 + libmatroska v1.3.0 Видео Идентификатор : 1 Формат : AVC Формат/Информация : Advanced Video Codec Профиль формата : High@L4.1 Настройки формата : CABAC / 5 Ref Frames Параметр CABAC формата : Да Параметр RefFrames формата : 5 кадров Идентификатор кодека : V_MPEG4/ISO/AVC Продолжительность : 1 ч. 59 м. Битрейт : 13,6 Мбит/сек Ширина : 1920 пикселей Высота : 818 пикселей Соотношение сторон : 2,35:1 Режим частоты кадров : Постоянный Частота кадров : 23,976 (24000/1001) кадра/сек Цветовое пространство : YUV Субдискретизация насыщенности : 4:2:0 Битовая глубина : 8 бит Тип развёртки : Прогрессивная Бит/(Пиксели*Кадры) : 0.361 Размер потока : 11,0 Гбайт (67%) Библиотека кодирования : x264 core 164 r3106+55M 24adf88 t_mod_New Настройки программы : cabac=1 / ref=5 / deblock=1:-3:-3 / analyse=0x3:0x113 / me=umh / subme=11 / psy=1 / fade_compensate=0.00 / psy_rd=1.00:0.00 / mixed_ref=1 / me_range=48 / chroma_me=1 / trellis=2 / 8x8dct=1 / cqm=0 / deadzone=21,11 / fast_pskip=0 / chroma_qp_offset=-2 / threads=12 / lookahead_threads=3 / sliced_threads=0 / nr=0 / decimate=0 / interlaced=0 / bluray_compat=0 / constrained_intra=0 / fgo=0 / bframes=12 / b_pyramid=2 / b_adapt=2 / b_bias=0 / direct=3 / weightb=1 / open_gop=0 / weightp=2 / keyint=240 / keyint_min=23 / scenecut=40 / intra_refresh=0 / rc_lookahead=40 / rc=2pass / mbtree=0 / bitrate=13600 / ratetol=1.0 / qcomp=0.60 / qpmin=0:0:0 / qpmax=39:39:39 / qpstep=4 / cplxblur=20.0 / qblur=0.5 / vbv_maxrate=50000 / vbv_bufsize=62500 / nal_hrd=none / filler=0 / ip_ratio=1.25 / pb_ratio=1.30 / aq=2:0.70 / aq-sensitivity=10.00 / aq-factor=1.00:1.00:1.00 / aq2=0 / aq3=0 Язык : English Default : Да Forced : Нет Цветовой диапазон : Limited Основные цвета : BT.709 Характеристики трансфера : BT.709 Коэффициенты матрицы : BT.709 Аудио #1 Идентификатор : 2 Формат : E-AC-3 Формат/Информация : Enhanced Audio Coding 3 Параметр Endianness формата : Big Идентификатор кодека : A_EAC3 Продолжительность : 1 ч. 59 м. Вид битрейта : Постоянный Битрейт : 640 Кбит/сек Каналы : 6 каналов Расположение каналов : Front: L C R, Side: L R, LFE Частота : 48,0 КГц Частота кадров : 187,500 кадров/сек (256 SPF) Метод сжатия : С потерями Размер потока : 545 Мбайт (3%) Заголовок : Дубляж, Amazon Язык : Russian Default : Да Forced : Нет Аудио #2 Идентификатор : 3 Формат : AC-3 Формат/Информация : Audio Coding 3 Параметр Endianness формата : Big Идентификатор кодека : A_AC3 Продолжительность : 1 ч. 59 м. Вид битрейта : Постоянный Битрейт : 640 Кбит/сек Каналы : 6 каналов Расположение каналов : Front: L C R, Side: L R, LFE Частота : 48,0 КГц Частота кадров : 31,250 кадров/сек (1536 SPF) Битовая глубина : 16 бит Метод сжатия : С потерями Размер потока : 545 Мбайт (3%) Заголовок : Многоголосый закадровый, HDRezka Studio Язык : Russian Default : Нет Forced : Нет Аудио #3 Идентификатор : 4 Формат : AC-3 Формат/Информация : Audio Coding 3 Параметр Endianness формата : Big Идентификатор кодека : A_AC3 Продолжительность : 1 ч. 59 м. Вид битрейта : Постоянный Битрейт : 640 Кбит/сек Каналы : 6 каналов Расположение каналов : Front: L C R, Side: L R, LFE Частота : 48,0 КГц Частота кадров : 31,250 кадров/сек (1536 SPF) Битовая глубина : 16 бит Метод сжатия : С потерями Размер потока : 545 Мбайт (3%) Заголовок : Двухголосый закадровый, Tycoon Язык : Russian Default : Нет Forced : Нет Аудио #4 Идентификатор : 5 Формат : AC-3 Формат/Информация : Audio Coding 3 Параметр Endianness формата : Big Идентификатор кодека : A_AC3 Продолжительность : 1 ч. 59 м. Вид битрейта : Постоянный Битрейт : 640 Кбит/сек Каналы : 6 каналов Расположение каналов : Front: L C R, Side: L R, LFE Частота : 48,0 КГц Частота кадров : 31,250 кадров/сек (1536 SPF) Битовая глубина : 16 бит Метод сжатия : С потерями Размер потока : 545 Мбайт (3%) Заголовок : Одноголосый закадровый, А. Гаврилов Язык : Russian Default : Нет Forced : Нет Аудио #5 Идентификатор : 6 Формат : AC-3 Формат/Информация : Audio Coding 3 Параметр Endianness формата : Big Идентификатор кодека : A_AC3 Продолжительность : 1 ч. 59 м. Вид битрейта : Постоянный Битрейт : 640 Кбит/сек Каналы : 6 каналов Расположение каналов : Front: L C R, Side: L R, LFE Частота : 48,0 КГц Частота кадров : 31,250 кадров/сек (1536 SPF) Битовая глубина : 16 бит Метод сжатия : С потерями Размер потока : 545 Мбайт (3%) Заголовок : Одноголосый закадровый, Ю. Сербин Язык : Russian Default : Нет Forced : Нет Аудио #6 Идентификатор : 7 Формат : AC-3 Формат/Информация : Audio Coding 3 Параметр Endianness формата : Big Идентификатор кодека : A_AC3 Продолжительность : 1 ч. 59 м. Вид битрейта : Постоянный Битрейт : 640 Кбит/сек Каналы : 6 каналов Расположение каналов : Front: L C R, Side: L R, LFE Частота : 48,0 КГц Частота кадров : 31,250 кадров/сек (1536 SPF) Битовая глубина : 16 бит Метод сжатия : С потерями Размер потока : 545 Мбайт (3%) Заголовок : Одноголосый закадровый, В. Горчаков Язык : Russian Default : Нет Forced : Нет Аудио #7 Идентификатор : 8 Формат : AC-3 Формат/Информация : Audio Coding 3 Параметр Endianness формата : Big Идентификатор кодека : A_AC3 Продолжительность : 1 ч. 59 м. Вид битрейта : Постоянный Битрейт : 640 Кбит/сек Каналы : 6 каналов Расположение каналов : Front: L C R, Side: L R, LFE Частота : 48,0 КГц Частота кадров : 31,250 кадров/сек (1536 SPF) Битовая глубина : 16 бит Метод сжатия : С потерями Размер потока : 545 Мбайт (3%) Заголовок : Одноголосый закадровый, Е. Гаевский Язык : Russian Default : Нет Forced : Нет Аудио #8 Идентификатор : 9 Формат : AC-3 Формат/Информация : Audio Coding 3 Параметр Endianness формата : Big Идентификатор кодека : A_AC3 Продолжительность : 1 ч. 59 м. Вид битрейта : Постоянный Битрейт : 640 Кбит/сек Каналы : 6 каналов Расположение каналов : Front: L C R, Side: L R, LFE Частота : 48,0 КГц Частота кадров : 31,250 кадров/сек (1536 SPF) Битовая глубина : 16 бит Метод сжатия : С потерями Размер потока : 545 Мбайт (3%) Заголовок : Одноголосый закадровый, М. Яроцкий Язык : Russian Default : Нет Forced : Нет Аудио #9 Идентификатор : 10 Формат : AC-3 Формат/Информация : Audio Coding 3 Параметр Endianness формата : Big Идентификатор кодека : A_AC3 Продолжительность : 1 ч. 59 м. Вид битрейта : Постоянный Битрейт : 448 Кбит/сек Каналы : 6 каналов Расположение каналов : Front: L C R, Side: L R, LFE Частота : 48,0 КГц Частота кадров : 31,250 кадров/сек (1536 SPF) Битовая глубина : 16 бит Метод сжатия : С потерями Размер потока : 381 Мбайт (2%) Заголовок : Одноголосый закадровый, В. Королев Язык : Russian Default : Нет Forced : Нет Аудио #10 Идентификатор : 11 Формат : AC-3 Формат/Информация : Audio Coding 3 Параметр Endianness формата : Big Идентификатор кодека : A_AC3 Продолжительность : 1 ч. 59 м. Вид битрейта : Постоянный Битрейт : 640 Кбит/сек Каналы : 6 каналов Расположение каналов : Front: L C R, Side: L R, LFE Частота : 48,0 КГц Частота кадров : 31,250 кадров/сек (1536 SPF) Битовая глубина : 16 бит Метод сжатия : С потерями Размер потока : 545 Мбайт (3%) Заголовок : Оригинал Язык : English Default : Нет Forced : Нет Текст #1 Идентификатор : 12 Формат : UTF-8 Идентификатор кодека : S_TEXT/UTF8 Идентификатор кодека/Информация : UTF-8 Plain Text Заголовок : Forced, R5 Язык : Russian Default : Нет Forced : Нет Текст #2 Идентификатор : 13 Формат : UTF-8 Идентификатор кодека : S_TEXT/UTF8 Идентификатор кодека/Информация : UTF-8 Plain Text Заголовок : Forced, HDRezka Studio Язык : Russian Default : Нет Forced : Нет Текст #3 Идентификатор : 14 Формат : UTF-8 Идентификатор кодека : S_TEXT/UTF8 Идентификатор кодека/Информация : UTF-8 Plain Text Заголовок : captions Язык : Russian Default : Нет Forced : Нет Текст #4 Идентификатор : 15 Формат : UTF-8 Идентификатор кодека : S_TEXT/UTF8 Идентификатор кодека/Информация : UTF-8 Plain Text Заголовок : Tycoon Язык : Russian Default : Нет Forced : Нет Текст #5 Идентификатор : 16 Формат : UTF-8 Идентификатор кодека : S_TEXT/UTF8 Идентификатор кодека/Информация : UTF-8 Plain Text Язык : English Default : Нет Forced : Нет Меню 00:00:00.000 : en:A World of Trouble 00:05:01.760 : en:Worth Killing For 00:09:32.446 : en:Male on Board 00:14:50.098 : en:Vultures 00:19:50.856 : en:Main Titles 00:29:14.002 : en:Crew Plus One 00:36:19.260 : en:Den of Thieves 00:44:10.273 : en:A Boatful of Citizens 00:49:55.701 : en:Public Relations 00:55:45.050 : en:Companionable 00:59:29.316 : en:Last Stand 01:04:46.256 : en:Bribery 01:09:14.734 : en:Campfire Stories 01:13:34.785 : en:Mean Old Man 01:22:39.580 : en:Lost in the Woods 01:30:19.581 : en:Government Goods 01:36:58.479 : en:Impatience 01:45:57.726 : en:Return of the Reavers 01:47:38.118 : en:Still Flying 01:53:22.671 : en:End Titles

Всего файлов в раздаче: 1 
Миссия Серенити (2005) BDRip 1080p.mkv16.47 GB

Похожие раздачи по запросу - Миссия
2024-01-26 magnet Миссия Серенити / Serenity (2005) WEB-DLRip-AVC от DoMiNo | D | Open Matte 2.91 GB ↑ 0 ↓ 0
2024-01-07 magnet Миссия «Серенити» / Serenity (2005) BDRip 1080p | D, P, P2, A 16.47 GB ↑ 0 ↓ 0
2024-01-06 magnet Миссия "Бесконечность" / Infiniti [S01] (2022) BDRip 1080p | ViruseProject 10.94 GB ↑ 0 ↓ 0
2023-12-29 magnet Серия - «Миссия выполнима» [28 книг] (2016-2022) FB2 45.75 MB ↑ 0 ↓ 0
2023-12-03 magnet Миссия невыполнима: Смертельная расплата. Часть первая / Mission: Impossible - Dead Reckoning Part One (2023) HDRip-AVC от ExKinoRay | D 1К1.08 GB ↑ 0 ↓ 0
2023-11-25 magnet Серия - «Миссия выполнима» [22 книги] (2016-2020) FB2 33.42 MB ↑ 0 ↓ 0
2023-11-19 magnet Миссия невыполнима: Смертельная расплата. Часть первая / Mission: Impossible - Dead Reckoning Part One (2023) WEB-DL 1080p | D | Flarrow Films 12.07 GB ↑ 0 ↓ 0

Комментарии

bdf
Отличный фильм, лежит в коллекции. Спасибо, что напомнили, пересмотрю.


Зарегистрируйтесь чтобы добавить комментарий
Торрент клиент
byTorrent - программа для загрузки торрент-файлов.

Скачать byTorrent.exe (1,5 МБ)

Скачать byTorrent.zip (0,6 МБ)

Поддержи torrent.by
российских рублей
(300 российских рублей это 4$)

Обратная связь rss

End game ©