↑↓torrent.by
Поиск
Логин:  Регистрация
Пароль:

Затерянный город Z / The Lost City of Z (2016) BDRip-HEVC 1080p от RIPS CLUB | D

download Скачать торрент-файл   magnet Магнитная ссылка Размер: 6.35 GB Добавлен: 2024-01-26 05:00
Пиры будут получены из сети DHT
Последний сидер был замечен 2024-01-29 23:00
Название: Затерянный город Z Оригинальное название: The Lost City of Z Год производства: 2016 Производство: США / Keep Your Head, MadRiver Pictures, MICA Entertainment, Plan B Entertainment, Sierra Pictures (III) Жанр: драма, приключения, биография, история Режиссёр: Джеймс Грэй В ролях: Чарли Ханнэм, Роберт Паттинсон, Сиенна Миллер, Том Холланд, Эдвард Эшли, Энгус Макфадьен, Иен Макдермид, Клайв Фрэнсис, Педро Коэльо, Мэтью Сандерлэнд О фильме: 1925 год. Майор Фоссет, член Королевского географического общества, возглавляет экспедицию в джунгли Амазонии, где он надеется найти столицу инков, загадочный Город Z. Продолжительность: 02:21:14 Перевод: дублированный Качество: BDRip-HEVC 1080p Кодек: HEVC (x265) Видео: 1920x804, 4769 Kbps, HEVC (Main10@L.4.1@High) 10 бит Звук: Аудио1: AC3, 6 ch, 640 Kbps - Русский, DUB (Мосфильм-Мастер / BD RUS) Аудио2: AC3, 2 ch, 192 Kbps - Украинский, MVO (Inter) Аудио3: AC3, 2 ch, 192 Kbps - Украинский, MVO (Cine+) Аудио4: AC3, 6 ch, 640 Kbps - Английский Субтитры: русские, английские Навигация по главам: Есть
[+] Лог (x265 info) + Mediainfo x265 : frame I: 857, Avg QP:17.72 kb/s: 13182.64 x265 : frame P: 25930, Avg QP:19.44 kb/s: 9615.73 x265 : frame B: 176398, Avg QP:21.43 kb/s: 4014.59 x265 : Weighted P-Frames: Y:12.8% UV:11.3% x265 : Weighted B-Frames: Y:12.2% UV:10.5% x265 : encoded 203185 frames in 126720.50s (1.60 fps), 4768.06 kb/s, Avg QP:21.16 Общее Уникальный идентификатор : 242108773780913722505424330856760748884 (0xB624742725EE9E7F62E8C5D6E4FA2B54) Полное имя : .Затерянный.город.Z.The.Lost.City.of.Z.2016.BDRip-HEVC.1080p.mkv Формат : Matroska Версия формата : Version 4 Размер файла : 6,35 Гбайт Продолжительность : 2 ч. 21 м. Общий поток : 6 436 Кбит/сек Частота кадров : 23,976 кадра/сек Название фильма : Затерянный город Z / Затерянный город Z Тип содержимого : Movie Описание : Основано на реальной, но невероятной истории Дата выпуска : 2017-03-15 Дата записи : 2017-03-15 Программа кодирования : mkvmerge v82.0 ('I'm The President') 64-bit Библиотека кодирования : libebml v1.4.5 + libmatroska v1.7.1 Обложка : Yes Attachments : cover.jpg ACTOR : Charlie Hunnam, Robert Pattinson, Sienna Miller, Tom Holland, Angus Macfadyen, Edward Ashley, Clive Francis, Ian McDiarmid, Franco Nero, Matthew Sunderland, Johann Myers, Daniel Huttlestone, Harry Melling, Pedro Coello, Aleksandar Jovanović, Yelena S... ARTIST : Charlie Hunnam, Robert Pattinson, Sienna Miller, Tom Holland, Angus Macfadyen, Edward Ashley, Clive Francis, Ian McDiarmid, Franco Nero, Matthew Sunderland, Johann Myers, Daniel Huttlestone, Harry Melling, Pedro Coello, Aleksandar Jovanović, Yelena S... DIRECTOR : James Gray GENRE : приключения, драма, история LAW_RATING : PG-13 PRODUCER : Dede Gardner, James Gray, Anthony Katagas, Jeremy Kleiner, Dale Armin Johnson PRODUCTION_STUDIO : Keep Your Head Productions RATING : PG-13 SCREENPLAY_BY : James Gray SUMMARY : Основано на реальной, но невероятной истории SYNOPSIS : Эльдорадо, таинственная столица инков, загадочный Город Z… Вымысел или реальность? В 1925 году экспедиция полковника Фоссета, члена Королевского Географического общества, бесследно исчезла в джунглях Амазонии в поисках Города Z… WRITTEN_BY : James Gray Видео Идентификатор : 1 Формат : HEVC Формат/Информация : High Efficiency Video Coding Профиль формата : Main 10@L4.1@High Идентификатор кодека : V_MPEGH/ISO/HEVC Продолжительность : 2 ч. 21 м. Битрейт : 4 769 Кбит/сек Ширина : 1 920 пикселей Высота : 804 пикселя Соотношение сторон : 2,39:1 Режим частоты кадров : Постоянный Частота кадров : 23,976 (24000/1001) кадра/сек Цветовое пространство : YUV Субдискретизация насыщенности : 4:2:0 Битовая глубина : 10 бит Бит/(Пиксели*Кадры) : 0.129 Размер потока : 4,70 Гбайт (74%) Заголовок : The Lost City of Z / Rip by OldGamer Библиотека кодирования : x265 3.5+110-8ee01d45b: 10bit Настройки программы : cpuid=1111039 / frame-threads=3 / numa-pools=8 / wpp / no-pmode / no-pme / no-psnr / no-ssim / log-level=2 / input-csp=1 / input-res=1920x804 / interlace=0 / total-frames=203185 / level-idc=41 / high-tier=1 / uhd-bd=0 / ref=5 / no-allow-non-conformance / no-repeat-headers / annexb / no-aud / no-eob / no-eos / no-hrd / info / hash=0 / temporal-layers=0 / open-gop / min-keyint=23 / keyint=240 / gop-lookahead=0 / bframes=16 / b-adapt=2 / b-pyramid / bframe-bias=0 / rc-lookahead=60 / lookahead-slices=0 / scenecut=40 / no-hist-scenecut / radl=0 / no-splice / no-intra-refresh / ctu=32 / min-cu-size=8 / rect / amp / max-tu-size=32 / tu-inter-depth=4 / tu-intra-depth=4 / limit-tu=1 / rdoq-level=2 / dynamic-rd=0.00 / no-ssim-rd / signhide / no-tskip / nr-intra=0 / nr-inter=0 / no-constrained-intra / no-strong-intra-smoothing / max-merge=5 / limit-refs=3 / no-limit-modes / me=3 / subme=7 / merange=57 / temporal-mvp / no-frame-dup / no-hme / weightp / weightb / no-analyze-src-pics / deblock=-2:-2 / no-sao / no-sao-non-deblock / rd=6 / selective-sao=0 / no-early-skip / no-rskip / no-fast-intra / no-tskip-fast / no-cu-lossless / b-intra / no-splitrd-skip / rdpenalty=0 / psy-rd=2.00 / psy-rdoq=1.00 / no-rd-refine / no-lossless / cbqpoffs=0 / crqpoffs=0 / rc=crf / crf=20.5 / qcomp=0.60 / qpstep=4 / stats-write=0 / stats-read=0 / vbv-maxrate=50000 / vbv-bufsize=50000 / vbv-init=0.9 / min-vbv-fullness=50.0 / max-vbv-fullness=80.0 / crf-max=0.0 / crf-min=0.0 / ipratio=1.40 / pbratio=1.30 / aq-mode=1 / aq-strength=1.00 / no-cutree / zone-count=1 / zones: / start-frame=189422 / end-frame=203185 / qp=36 / no-strict-cbr / qg-size=32 / no-rc-grain / qpmax=69 / qpmin=0 / no-const-vbv / sar=1 / overscan=0 / videoformat=5 / range=0 / colorprim=2 / transfer=2 / colormatrix=2 / chromaloc=0 / display-window=0 / cll=0,0 / min-luma=0 / max-luma=1023 / log2-max-poc-lsb=8 / vui-timing-info / vui-hrd-info / slices=1 / no-opt-qp-pps / no-opt-ref-list-length-pps / no-multi-pass-opt-rps / scenecut-bias=0.00 / no-opt-cu-delta-qp / no-aq-motion / no-hdr10 / no-hdr10-opt / no-dhdr10-opt / no-idr-recovery-sei / analysis-reuse-level=0 / analysis-save-reuse-level=0 / analysis-load-reuse-level=0 / scale-factor=0 / refine-intra=0 / refine-inter=0 / refine-mv=1 / refine-ctu-distortion=0 / no-limit-sao / ctu-info=0 / no-lowpass-dct / refine-analysis-type=0 / copy-pic=1 / max-ausize-factor=1.0 / no-dynamic-refine / no-single-sei / no-hevc-aq / no-svt / no-field / qp-adaptation-range=1.00 / scenecut-aware-qp=0conformance-window-offsets / right=0 / bottom=0 / decoder-max-rate=0 / no-vbv-live-multi-pass / no-mcstf / no-sbrc Язык : English Default : Да Forced : Нет Аудио #1 Идентификатор : 2 Формат : AC-3 Формат/Информация : Audio Coding 3 Коммерческое название : Dolby Digital Идентификатор кодека : A_AC3 Продолжительность : 2 ч. 21 м. Вид битрейта : Постоянный Битрейт : 640 Кбит/сек Каналы : 6 каналов Channel layout : L R C LFE Ls Rs Частота : 48,0 КГц Частота кадров : 31,250 кадров/сек (1536 SPF) Метод сжатия : С потерями Размер потока : 647 Мбайт (10%) Заголовок : DUB (Мосфильм-Мастер / BD RUS) Язык : Russian Service kind : Complete Main Default : Да Forced : Нет Аудио #2 Идентификатор : 3 Формат : AC-3 Формат/Информация : Audio Coding 3 Коммерческое название : Dolby Digital Идентификатор кодека : A_AC3 Продолжительность : 2 ч. 21 м. Вид битрейта : Постоянный Битрейт : 192 Кбит/сек Каналы : 2 канала Channel layout : L R Частота : 48,0 КГц Частота кадров : 31,250 кадров/сек (1536 SPF) Метод сжатия : С потерями Размер потока : 194 Мбайт (3%) Заголовок : MVO (Inter) Язык : Ukrainian Service kind : Complete Main Default : Нет Forced : Нет Аудио #3 Идентификатор : 4 Формат : AC-3 Формат/Информация : Audio Coding 3 Коммерческое название : Dolby Digital Идентификатор кодека : A_AC3 Продолжительность : 2 ч. 21 м. Вид битрейта : Постоянный Битрейт : 192 Кбит/сек Каналы : 2 канала Channel layout : L R Частота : 48,0 КГц Частота кадров : 31,250 кадров/сек (1536 SPF) Метод сжатия : С потерями Размер потока : 194 Мбайт (3%) Заголовок : MVO (Cine+) Язык : Ukrainian Service kind : Complete Main Default : Нет Forced : Нет Аудио #4 Идентификатор : 5 Формат : AC-3 Формат/Информация : Audio Coding 3 Коммерческое название : Dolby Digital Идентификатор кодека : A_AC3 Продолжительность : 2 ч. 21 м. Вид битрейта : Постоянный Битрейт : 640 Кбит/сек Каналы : 6 каналов Channel layout : L R C LFE Ls Rs Частота : 48,0 КГц Частота кадров : 31,250 кадров/сек (1536 SPF) Метод сжатия : С потерями Размер потока : 647 Мбайт (10%) Язык : English Service kind : Complete Main Default : Нет Forced : Нет Текст #1 Идентификатор : 6 Формат : UTF-8 Идентификатор кодека : S_TEXT/UTF8 Идентификатор кодека/Информация : UTF-8 Plain Text Продолжительность : 2 ч. 10 м. Битрейт : 80 бит/сек Частота кадров : 0,199 кадр/сек Count of elements : 1559 Размер потока : 76,8 Кбайт (0%) Заголовок : Aillas Troice Язык : Russian Default : Нет Forced : Нет Текст #2 Идентификатор : 7 Формат : UTF-8 Идентификатор кодека : S_TEXT/UTF8 Идентификатор кодека/Информация : UTF-8 Plain Text Продолжительность : 2 ч. 8 м. Битрейт : 43 бит/сек Частота кадров : 0,178 кадр/сек Count of elements : 1380 Размер потока : 41,2 Кбайт (0%) Язык : English Default : Нет Forced : Нет Меню 00:00:00.000 : en:00:00:00.000 00:08:21.751 : en:00:08:21.751 00:15:32.849 : en:00:15:32.849 00:21:29.038 : en:00:21:29.038 00:27:10.045 : en:00:27:10.045 00:34:57.637 : en:00:34:57.637 00:44:59.113 : en:00:44:59.113 00:49:36.432 : en:00:49:36.432 00:58:25.919 : en:00:58:25.919 01:04:43.338 : en:01:04:43.338 01:11:10.600 : en:01:11:10.600 01:21:22.294 : en:01:21:22.294 01:27:42.424 : en:01:27:42.424 01:30:42.854 : en:01:30:42.854 01:39:46.230 : en:01:39:46.230 01:43:59.984 : en:01:43:59.984 01:51:40.193 : en:01:51:40.193 01:56:11.089 : en:01:56:11.089 02:01:43.046 : en:02:01:43.046 02:08:34.373 : en:02:08:34.373
[+] Скриншоты
Релиз от: OldGamer

Всего файлов в раздаче: 1 
Затерянный.город.Z.The.Lost.City.of.Z.2016.BDRip-HEVC.1080p.mkv6.35 GB

Похожие раздачи по запросу - Затерянный
2023-12-21 magnet Серия - Затерянный мир [93 книги] (1923-2022) FB2, PDF, DjVu 244.63 MB ↑ 0 ↓ 0

Комментарии


Зарегистрируйтесь чтобы добавить комментарий
Торрент клиент
byTorrent - программа для загрузки торрент-файлов.

Скачать byTorrent.exe (1,5 МБ)

Скачать byTorrent.zip (0,6 МБ)

Поддержи torrent.by
российских рублей
(300 российских рублей это 4$)

Обратная связь rss

End game ©