↑↓torrent.by
Поиск
Логин:  Регистрация
Пароль:

Кодекс молчания / Code of Silence (1985) BDRip | P2

download Скачать торрент-файл   magnet Магнитная ссылка Размер: 1.46 GB Добавлен: 2024-01-26 11:00
Пиры будут получены из сети DHT
Последний сидер был замечен 2024-01-26 23:21
Страна: США Жанр: боевик, триллер, драма, криминал Год выпуска: 1985 Продолжительность: 01:40:49 Перевод: Профессиональный (двухголосый закадровый) НТВ+ Субтитры: нет Режиссер: Эндрю Дэвис / Andrew Davis В ролях: Чак Норрис (Eddie Cusack), Генри Сильва (Luis Comacho), Берт Ремсен (Commander Kates), Майк Дженовезе (Tony Luna), Нэйтан Дэвис (Felix Scalese), Ральф Фуди (Det. Cragie), Аллен Хэмилтон (Ted Pirelli), Рон Энрикез (Victor Comacho), Джо Гузальдо (Det. Nick Kopalas), Молли Хэйгэн (Diana Luna) Описание: Очередная операция полиции Чикаго планировалась особенно тщательно. Дело того стоило: наконец-то появилась возможность взять с поличным печально знаменитую нарко-банду Комачо. Но в момент передачи «товара» на месте сделки появляются представители конкурирующей группировки — люди Тони Луна. Завязывается перестрелка, в результате которой погибают два офицера, ранен сам Камачо, а партия наркотиков бесследно исчезает. Найти пропажу поручено детективу Эдди Кьюсаку, который решает действовать крайне осторожно и первым делом устанавливает наблюдение за Дайаной — дочерью Тони Луна… Качество видео: BDRip (источник: HDclub / Blu-Ray Remux / 1080p) Формат видео: AVI Видео: 720x384 (1.88:1), 23.976 fps, XviD MPEG-4 ~1871 kbps avg, 0.28 bit/pixel Аудио: 48 kHz, AC3 Dolby Digital, 2/0 (L,R) ch, ~192 kbps
[+] MediaInfo Кодекс молчания - Code of Silence .avi Format : AVI Format/Info : Audio Video Interleave File size : 1.46 GiB Duration : 1h 40mn Overall bit rate : 2 073 Kbps Writing application : VirtualDubMod 1.5.10.2 (build 2540/release) Writing library : VirtualDubMod build 2540/release Video ID : 0 Format : MPEG-4 Visual Format profile : Advanced Simple@L5 Format settings, BVOP : 2 Format settings, QPel : No Format settings, GMC : No warppoints Format settings, Matrix : Custom Muxing mode : Packed bitstream Codec ID : XVID Codec ID/Hint : XviD Duration : 1h 40mn Bit rate : 1 871 Kbps Width : 720 pixels Height : 384 pixels Display aspect ratio : 1.85:1 Frame rate : 23.976 fps Color space : YUV Chroma subsampling : 4:2:0 Bit depth : 8 bits Scan type : Progressive Compression mode : Lossy Bits/(Pixel*Frame) : 0.282 Stream size : 1.32 GiB (90%) Writing library : XviD 65 Audio ID : 1 Format : AC-3 Format/Info : Audio Coding 3 Mode extension : CM (complete main) Format settings, Endianness : Big Codec ID : 2000 Duration : 1h 40mn Bit rate mode : Constant Bit rate : 192 Kbps Channel(s) : 2 channels Channel positions : Front: L R Sampling rate : 48.0 KHz Bit depth : 16 bits Compression mode : Lossy Stream size : 138 MiB (9%) Alignment : Split accross interleaves Interleave, duration : 42 ms (1.00 video frame) Interleave, preload duration : 500 ms
[+] Скриншоты

Всего файлов в раздаче: 1 
Кодекс молчания - Code of Silence [НТВ+] .avi1.46 GB

Похожие раздачи по запросу - Кодекс
2024-02-23 magnet Юрий Винокуров, Олег Сапфир - Кодекс Охотника [Книга 19] (2024) МР3 1.08 GB ↑ 0 ↓ 0
2024-01-30 magnet Юрий Винокуров, Олег Сапфир - Кодекс Охотника [Книга 18] (2023) МР3 342.93 MB ↑ 0 ↓ 0
2024-01-19 magnet Юрий Винокуров, Олег Сапфир - Цикл «Кодекс Охотника» [19 книг] (2022-2024) FB2 16.26 MB ↑ 0 ↓ 0
2024-01-11 magnet Юрий Винокуров, Олег Сапфир - Цикл «Кодекс Охотника» [18 книг] (2022-2023) FB2 15.38 MB ↑ 1 ↓ 0
2023-11-11 magnet Юрий Винокуров, Олег Сапфир - Кодекс Охотника [15 книг] (2023) МР3 6.41 GB ↑ 0 ↓ 0
2023-09-13 magnet Юрий Винокуров, Олег Сапфир - Цикл «Кодекс Охотника» [14 книг] (2022-2023) FB2 12.07 MB ↑ 0 ↓ 0

Комментарии


Зарегистрируйтесь чтобы добавить комментарий
Торрент клиент
byTorrent - программа для загрузки торрент-файлов.

Скачать byTorrent.exe (1,5 МБ)

Скачать byTorrent.zip (0,6 МБ)

Поддержи torrent.by
российских рублей
(300 российских рублей это 4$)

Обратная связь rss

End game ©