↑↓torrent.by
Поиск
Логин:  Регистрация
Пароль:

Вторжение в США / Invasion U.S.A. (1985) BDRip-HEVC 1080p от RIPS CLUB | P, A

download Скачать торрент-файл   magnet Магнитная ссылка Размер: 9.22 GB Добавлен: 2024-01-26 11:00
Пиры будут получены из сети DHT
Последний сидер был замечен 2024-02-05 23:11
Название: Вторжение в США Оригинальное название: Invasion U.S.A. Год производства: 1985 Премьера в мире: 27 сентября 1985 Производство: США / Cannon Films Жанр: боевик, триллер Режиссёр: Джозеф Зито В ролях: Чак Норрис, Ричард Линч, Мелисса Профет, Александер Цале, Алекс Колон, Эдди Джонс, Джон Де Вриз, Джеймс О’Салливан, Билли Драго, Хайме Санчес О фильме: Отставной агент ЦРУ вынужден вернуться в строй после высадки во Флориде советских террористов, грозящей захватом всей страны. Тем более что наконец-то предоставляется возможность уничтожить давнего врага - агента Михаила Ростова. Но и советский шпион тоже хочет поквитаться со своим старым знакомым. Продолжительность: 01:47:40 Перевод: многоголосый профессиональный, авторский Качество: BDRip-HEVC 1080p Кодек: HEVC (x265) Видео: 1920x1040 (1.85:1), 10,0 Мбит/сек, HEVC (Main10@L.4.1@High) 10 бит Звук: Аудио1: AC3, 2 ch, 192 Kbps - Русский, MVO (Петербург 5-й канал) Аудио2: AC3, 2 ch, 192 Kbps - Русский, MVO (2х2) Аудио3: AC3, 6 ch, 640 Kbps - Русский, AVO (Василий Горчаков) Аудио4: AC3, 2 ch, 192 Kbps - Русский, AVO (Андрей Гаврилов) Аудио5: AC3, 2 ch, 192 Kbps - Русский, AVO (Юрий Живов) Аудио6: AC3, 2 ch, 192 Kbps - Украинский, MVO (НТН) Аудио7: AC3, 6 ch, 640 Kbps - Английский Субтитры: английские (forced, full SDH) Навигация по главам: Есть
[+] Лог (x265 info) + Mediainfo x265 : frame I: 658, Avg QP:17.81 kb/s: 23267.45 x265 : frame P: 30459, Avg QP:19.26 kb/s: 18497.29 x265 : frame B: 123769, Avg QP:21.07 kb/s: 7858.99 x265 : Weighted P-Frames: Y:11.2% UV:9.1% x265 : Weighted B-Frames: Y:8.9% UV:6.8% x265 : encoded 154886 frames in 130775.67s (1.18 fps), 10016.51 kb/s, Avg QP:20.70 Общее Уникальный идентификатор : 158504733262005036873306571299536889304 (0x773EE6B5CE5B963B247E81B4F6BDE5D8) Полное имя : .Вторжение.в.США.Invasion.U.S.A.1985.BDRip-HEVC.1080p.mkv Формат : Matroska Версия формата : Version 4 Размер файла : 9,22 Гбайт Продолжительность : 1 ч. 47 м. Общий поток : 12,3 Мбит/сек Частота кадров : 23,976 кадра/сек Дата кодирования : 2023-05-14 03:54:20 UTC Программа кодирования : mkvmerge v76.0 ('Celebration') 64-bit Библиотека кодирования : libebml v1.4.4 + libmatroska v1.7.1 Видео Идентификатор : 1 Формат : HEVC Формат/Информация : High Efficiency Video Coding Профиль формата : Main 10@L4.1@High Идентификатор кодека : V_MPEGH/ISO/HEVC Продолжительность : 1 ч. 47 м. Битрейт : 10,0 Мбит/сек Ширина : 1 920 пикселей Высота : 1 040 пикселей Соотношение сторон : 1,85:1 Режим частоты кадров : Постоянный Частота кадров : 23,976 (24000/1001) кадра/сек Цветовое пространство : YUV Субдискретизация насыщенности : 4:2:0 Битовая глубина : 10 бит Бит/(Пиксели*Кадры) : 0.209 Размер потока : 7,53 Гбайт (82%) Заголовок : Invasion U.S.A. / Rip by OldGamer Библиотека кодирования : x265 3.5+86-6da609e41: 10bit Настройки программы : cpuid=1111039 / frame-threads=4 / numa-pools=16 / wpp / no-pmode / no-pme / no-psnr / no-ssim / log-level=2 / input-csp=1 / input-res=1920x1040 / interlace=0 / total-frames=154886 / level-idc=41 / high-tier=1 / uhd-bd=0 / ref=5 / no-allow-non-conformance / no-repeat-headers / annexb / no-aud / no-eob / no-eos / no-hrd / info / hash=0 / temporal-layers=0 / open-gop / min-keyint=23 / keyint=240 / gop-lookahead=0 / bframes=16 / b-adapt=2 / b-pyramid / bframe-bias=0 / rc-lookahead=40 / lookahead-slices=0 / scenecut=40 / no-hist-scenecut / radl=0 / no-splice / no-intra-refresh / ctu=32 / min-cu-size=8 / rect / amp / max-tu-size=32 / tu-inter-depth=4 / tu-intra-depth=4 / limit-tu=1 / rdoq-level=2 / dynamic-rd=0.00 / no-ssim-rd / signhide / no-tskip / nr-intra=0 / nr-inter=0 / no-constrained-intra / no-strong-intra-smoothing / max-merge=5 / limit-refs=3 / no-limit-modes / me=3 / subme=7 / merange=57 / temporal-mvp / no-frame-dup / no-hme / weightp / weightb / no-analyze-src-pics / deblock=-2:-2 / no-sao / no-sao-non-deblock / rd=6 / selective-sao=0 / no-early-skip / no-rskip / no-fast-intra / no-tskip-fast / no-cu-lossless / b-intra / no-splitrd-skip / rdpenalty=0 / psy-rd=2.00 / psy-rdoq=1.00 / no-rd-refine / no-lossless / cbqpoffs=0 / crqpoffs=0 / rc=crf / crf=19.6 / qcomp=0.60 / qpstep=4 / stats-write=0 / stats-read=0 / vbv-maxrate=50000 / vbv-bufsize=50000 / vbv-init=0.9 / min-vbv-fullness=50.0 / max-vbv-fullness=80.0 / crf-max=0.0 / crf-min=0.0 / ipratio=1.40 / pbratio=1.30 / aq-mode=1 / aq-strength=1.00 / no-cutree / zone-count=1 / zones: / start-frame=149833 / end-frame=154886 / qp=36 / no-strict-cbr / qg-size=32 / no-rc-grain / qpmax=69 / qpmin=0 / no-const-vbv / sar=1 / overscan=0 / videoformat=5 / range=0 / colorprim=2 / transfer=2 / colormatrix=2 / chromaloc=0 / display-window=0 / cll=0,0 / min-luma=0 / max-luma=1023 / log2-max-poc-lsb=8 / vui-timing-info / vui-hrd-info / slices=1 / no-opt-qp-pps / no-opt-ref-list-length-pps / no-multi-pass-opt-rps / scenecut-bias=0.00 / no-opt-cu-delta-qp / no-aq-motion / no-hdr10 / no-hdr10-opt / no-dhdr10-opt / no-idr-recovery-sei / analysis-reuse-level=0 / analysis-save-reuse-level=0 / analysis-load-reuse-level=0 / scale-factor=0 / refine-intra=0 / refine-inter=0 / refine-mv=1 / refine-ctu-distortion=0 / no-limit-sao / ctu-info=0 / no-lowpass-dct / refine-analysis-type=0 / copy-pic=1 / max-ausize-factor=1.0 / no-dynamic-refine / no-single-sei / no-hevc-aq / no-svt / no-field / qp-adaptation-range=1.00 / scenecut-aware-qp=0conformance-window-offsets / right=0 / bottom=0 / decoder-max-rate=0 / no-vbv-live-multi-pass / no-mcstf / no-sbrc Язык : English Default : Да Forced : Нет Аудио #1 Идентификатор : 2 ID in the original source medium : 4352 (0x1100) Формат : AC-3 Формат/Информация : Audio Coding 3 Коммерческое название : Dolby Digital Идентификатор кодека : A_AC3 Продолжительность : 1 ч. 47 м. Вид битрейта : Постоянный Битрейт : 192 Кбит/сек Каналы : 2 канала Channel layout : L R Частота : 48,0 КГц Частота кадров : 31,250 кадров/сек (1536 SPF) Метод сжатия : С потерями Размер потока : 148 Мбайт (2%) Заголовок : MVO (Петербург 5-й канал) Язык : Russian Service kind : Complete Main Default : Да Forced : Нет Носитель оригинала : Blu-ray Аудио #2 Идентификатор : 3 ID in the original source medium : 4353 (0x1101) Формат : AC-3 Формат/Информация : Audio Coding 3 Коммерческое название : Dolby Digital Идентификатор кодека : A_AC3 Продолжительность : 1 ч. 47 м. Вид битрейта : Постоянный Битрейт : 192 Кбит/сек Каналы : 2 канала Channel layout : L R Частота : 48,0 КГц Частота кадров : 31,250 кадров/сек (1536 SPF) Метод сжатия : С потерями Размер потока : 148 Мбайт (2%) Заголовок : MVO (2х2) Язык : Russian Service kind : Complete Main Default : Нет Forced : Нет Носитель оригинала : Blu-ray Аудио #3 Идентификатор : 4 Формат : AC-3 Формат/Информация : Audio Coding 3 Коммерческое название : Dolby Digital Идентификатор кодека : A_AC3 Продолжительность : 1 ч. 47 м. Вид битрейта : Постоянный Битрейт : 640 Кбит/сек Каналы : 6 каналов Channel layout : L R C LFE Ls Rs Частота : 48,0 КГц Частота кадров : 31,250 кадров/сек (1536 SPF) Метод сжатия : С потерями Размер потока : 493 Мбайт (5%) Заголовок : AVO (Василий Горчаков) Язык : Russian Service kind : Complete Main Default : Нет Forced : Нет Аудио #4 Идентификатор : 5 ID in the original source medium : 4355 (0x1103) Формат : AC-3 Формат/Информация : Audio Coding 3 Коммерческое название : Dolby Digital Идентификатор кодека : A_AC3 Продолжительность : 1 ч. 47 м. Вид битрейта : Постоянный Битрейт : 192 Кбит/сек Каналы : 2 канала Channel layout : L R Частота : 48,0 КГц Частота кадров : 31,250 кадров/сек (1536 SPF) Метод сжатия : С потерями Размер потока : 148 Мбайт (2%) Заголовок : AVO (Андрей Гаврилов) Язык : Russian Service kind : Complete Main Default : Нет Forced : Нет Носитель оригинала : Blu-ray Аудио #5 Идентификатор : 6 ID in the original source medium : 4356 (0x1104) Формат : AC-3 Формат/Информация : Audio Coding 3 Коммерческое название : Dolby Digital Идентификатор кодека : A_AC3 Продолжительность : 1 ч. 47 м. Вид битрейта : Постоянный Битрейт : 192 Кбит/сек Каналы : 2 канала Channel layout : L R Частота : 48,0 КГц Частота кадров : 31,250 кадров/сек (1536 SPF) Метод сжатия : С потерями Размер потока : 148 Мбайт (2%) Заголовок : AVO (Юрий Живов) Язык : Russian Service kind : Complete Main Default : Нет Forced : Нет Носитель оригинала : Blu-ray Аудио #6 Идентификатор : 7 ID in the original source medium : 4357 (0x1105) Формат : AC-3 Формат/Информация : Audio Coding 3 Коммерческое название : Dolby Digital Идентификатор кодека : A_AC3 Продолжительность : 1 ч. 47 м. Вид битрейта : Постоянный Битрейт : 192 Кбит/сек Каналы : 2 канала Channel layout : L R Частота : 48,0 КГц Частота кадров : 31,250 кадров/сек (1536 SPF) Метод сжатия : С потерями Размер потока : 148 Мбайт (2%) Заголовок : MVO (НТН) Язык : Ukrainian Service kind : Complete Main Default : Нет Forced : Нет Носитель оригинала : Blu-ray Аудио #7 Идентификатор : 8 Формат : AC-3 Формат/Информация : Audio Coding 3 Коммерческое название : Dolby Digital Идентификатор кодека : A_AC3 Продолжительность : 1 ч. 47 м. Вид битрейта : Постоянный Битрейт : 640 Кбит/сек Каналы : 6 каналов Channel layout : L R C LFE Ls Rs Частота : 48,0 КГц Частота кадров : 31,250 кадров/сек (1536 SPF) Метод сжатия : С потерями Размер потока : 493 Мбайт (5%) Язык : English Service kind : Complete Main Default : Нет Forced : Нет Текст #1 Идентификатор : 9 Формат : UTF-8 Идентификатор кодека : S_TEXT/UTF8 Идентификатор кодека/Информация : UTF-8 Plain Text Продолжительность : 1 ч. 30 м. Битрейт : 1 бит/сек Частота кадров : 0,006 кадр/сек Count of elements : 32 Размер потока : 775 байт (0%) Заголовок : forced Язык : English Default : Нет Forced : Нет Текст #2 Идентификатор : 10 Формат : UTF-8 Идентификатор кодека : S_TEXT/UTF8 Идентификатор кодека/Информация : UTF-8 Plain Text Продолжительность : 1 ч. 42 м. Битрейт : 25 бит/сек Частота кадров : 0,100 кадр/сек Count of elements : 613 Размер потока : 19,2 Кбайт (0%) Заголовок : SDH Язык : English Default : Нет Forced : Нет Меню 00:00:00.000 : en:Chapter 01 00:09:08.089 : en:Chapter 02 00:17:57.576 : en:Chapter 03 00:28:06.267 : en:Chapter 04 00:36:40.698 : en:Chapter 05 00:47:41.817 : en:Chapter 06 01:02:12.145 : en:Chapter 07 01:11:11.225 : en:Chapter 08 01:19:16.293 : en:Chapter 09 01:27:35.208 : en:Chapter 10 01:34:08.934 : en:Chapter 11 01:41:30.125 : en:Chapter 12
[+] Скриншоты
Релиз от: OldGamer

Всего файлов в раздаче: 1 
Вторжение.в.США.Invasion.U.S.A.1985.BDRip-HEVC.1080p.mkv9.22 GB

Похожие раздачи по запросу - Вторжение
2023-11-14 magnet Атака титанов / Вторжение титанов / Shingeki no Kyojin [04x29-30] (2023) WEB-DL 1080p от NewComers | P 1К8.52 GB ↑ 0 ↓ 0
2023-10-17 magnet Вторжение / Invasion [S01] (2021) WEB-DL 1080p | Невафильм 43.50 GB ↑ 7 ↓ 0
2023-06-05 magnet Чужой. Вторжение / Alien Invasion (2023) WEB-DLRip-AVC от DoMiNo & селезень | D 1.09 GB ↑ 0 ↓ 0

Комментарии


Зарегистрируйтесь чтобы добавить комментарий
Торрент клиент
byTorrent - программа для загрузки торрент-файлов.

Скачать byTorrent.exe (1,5 МБ)

Скачать byTorrent.zip (0,6 МБ)

Поддержи torrent.by
российских рублей
(300 российских рублей это 4$)

Обратная связь rss

End game ©