↑↓torrent.by
Поиск
Логин:  Регистрация
Пароль:

Прибытие / The Arrival (1996) BDRip от New-Team | P2

download Скачать торрент-файл   magnet Магнитная ссылка Размер: 1.09 GB Добавлен: 2024-01-26 17:00
Пиры будут получены из сети DHT
Последний сидер был замечен 2024-02-15 11:35
Страна: США, Мексика Производство: Live Entertainment, Mediaworks, Steelwork Films Жанр: фантастика, боевик, триллер, детектив Год выпуска: 1996 Продолжительность: 01:55:16 Перевод: Профессиональный (двухголосый закадровый) R5 Оригинальная аудиодорожка: нет Cубтитры: нет Режиссер: Дэвид Туи / David Twohy В ролях: Чарли Шин, Линдси Краус, Тери Поло, Рон Сильвер, Ричард Шифф, Филлис Эпплгейт, Тони Т. Джонсон, Алан Коутс, Леон Риппи, Бадди Джо Хукер... Подробнее об актерах Описание: Однажды радиоастроном Зэйн Замински услышал сигнал из космоса. Однако за совершенное Зэйном «открытие века» его начальник Джордиан увольняет своего сотрудника, из чего Замински делает вывод, что существует грандиозный заговор с целью скрыть установление контакта с внеземной цивилизацией. В поисках доказательств своего предположения Зэйн приезжает в мексиканскую провинцию, где знакомится с Иланой Грин, специалисткой в области прогнозов погоды для всей планеты. Здесь, в Мексике, с риском для жизни Зэйн узнает, что инопланетяне у нас на Земле чувствуют себя хозяевами. Конечно, они пока еще не завоевали Землю, но, выбирая, каким путем им идти, чтобы решить проблемы жизни на своей, очевидно, гибнущей планете (путем переговоров с землянами или путем уничтожения нашей цивилизации), пришельцы предпочли второй вариант… Исходник: BDRemux 1080p Тип релиза: BDRip Контейнер: AVI Видео: 720x384 (1.85:1), 23,976 кадра/сек, XviD 73 ~ 769 кбит/сек, 0.139 бит/пиксель Аудио: 48 кГц, Dolby Digital AC3 2.0, 192 кбит/сек Раздача от:
[+] MediaInfo Общее Полное имя : Прибытие.1996.BDRip__by_AVP_Studio.avi Формат : AVI Формат/Информация : Audio Video Interleave Настройки формата : BitmapInfoHeader / WaveFormatEx Размер файла : 1,09 Гбайт Продолжительность : 1 ч. 55 м. Общий поток : 1 354 Кбит/сек Частота кадров : 23,976 кадра/сек Программа кодирования : VirtualDubMod 1.5.10.3 | www.virtualdub-fr.org || (build 2550/release) Библиотека кодирования : VirtualDubMod build 2550/release Видео Идентификатор : 0 Формат : MPEG-4 Visual Профиль формата : Advanced Simple@L5 Настройки формата : BVOP1 / Custom Matrix Параметр BVOP формата : 1 Параметр QPel формата : Нет Параметр GMC формата : Без точки перехода Параметр матрицы формата : Выборочная Идентификатор кодека : XVID Идентификатор кодека/Подсказка : XviD Продолжительность : 1 ч. 55 м. Битрейт : 1 153 Кбит/сек Ширина : 720 пикселей Высота : 384 пикселя Соотношение сторон : 1,85:1 Частота кадров : 23,976 (24000/1001) кадра/сек Цветовое пространство : YUV Субдискретизация насыщенности : 4:2:0 Битовая глубина : 8 бит Тип развёртки : Прогрессивная Метод сжатия : С потерями Бит/(Пиксели*Кадры) : 0.174 Размер потока : 950 Мбайт (85%) Библиотека кодирования : XviD 73 Аудио Идентификатор : 1 Формат : AC-3 Формат/Информация : Audio Coding 3 Коммерческое название : Dolby Digital Идентификатор кодека : 2000 Продолжительность : 1 ч. 55 м. Вид битрейта : Постоянный Битрейт : 192 Кбит/сек Каналы : 2 канала Channel layout : L R Частота : 48,0 КГц Частота кадров : 31,250 кадров/сек (1536 SPF) Метод сжатия : С потерями Размер потока : 158 Мбайт (14%) Выравнивание : Разделение по промежуткам Продолжительность промежутка : 42 мс. (1,00 видеокадр) Время предзагрузки промежутка : 500 мс
[+] Скриншоты

Всего файлов в раздаче: 1 
Прибытие.1996.BDRip_[New-team]_by_AVP_Studio.avi1.09 GB

Похожие раздачи по запросу - Прибытие
Сегодня magnet Сверхъестественное. Прибытие / Cosmic Dawn (2022) BDRip от MegaPeer | D 2К1.46 GB ↑ 1 ↓ 0
Сегодня magnet Сверхъестественное. Прибытие / Cosmic Dawn (2022) BDRip 720p от ELEKTRI4KA | D 4.52 GB ↑ 0 ↓ 0
Сегодня magnet Сверхъестественное. Прибытие / Cosmic Dawn (2022) BDRip 1080p от ELEKTRI4KA | D 8.64 GB ↑ 0 ↓ 0
2023-09-04 magnet Евгений Ильичев - Магеллан 1. Прибытие (2023) MP3 615.40 MB ↑ 0 ↓ 0

Комментарии


Зарегистрируйтесь чтобы добавить комментарий
Торрент клиент
byTorrent - программа для загрузки торрент-файлов.

Скачать byTorrent.exe (1,5 МБ)

Скачать byTorrent.zip (0,6 МБ)

Поддержи torrent.by
российских рублей
(300 российских рублей это 4$)

Обратная связь rss

End game ©