↑↓torrent.by
Поиск
Логин:  Регистрация
Пароль:

Static-X - Project Regeneration, Vol. 2 [24Bit, Hi-Res] (2024) FLAC

download Скачать торрент-файл   magnet Магнитная ссылка Размер: 618.59 MB Добавлен: 2024-01-26 17:00
Пиры будут получены из сети DHT
Последний сидер был замечен 2024-01-31 00:04
Static-X - Project Regeneration, Vol. 2 (2024) Жанр: Nu-Metal, Industrial-Metal Издание: Otsego Entertainment Group Источник: qobuz Продолжительность: 00:48:07 Кодек: FLAC 16,24/44.1,48 Битрейт: Lossless|WEB-DL Тип рипа: tracks Треклист: 01 Stay Alive 02 Z0mbie 03 Jic Boi 04 Black Star 05 Kamikaze 06 No Hope 07 Take Control 08 Tone 09 Run For Your Life 10 Dark Place 11 Disco Otsego 12 From Heaven 13 Terrible Lie (Bonus Track) 14 Grover Yoda Data 14 (Bonus Track)
[+] Дополнительная информация: USA https://www.facebook.com/staticx
[+] Отчёт DRM: -------------------------------------------------------------------------------- Analyzed: Static-X / Project Regeneration, Vol. 2 -------------------------------------------------------------------------------- DR Peak RMS Duration Track -------------------------------------------------------------------------------- DR7 -0.25 dB -8.40 dB 3:47 01-Stay Alive DR6 -0.19 dB -7.12 dB 3:11 02-Z0mbie -------------------------------------------------------------------------------- Number of tracks: 2 Official DR value: DR6 Samplerate: 44100 Hz Channels: 2 Bits per sample: 16 Bitrate: 1121 kbps Codec: FLAC ================================================================================ -------------------------------------------------------------------------------- Analyzed: Static-X / Project Regeneration, Vol. 2 -------------------------------------------------------------------------------- DR Peak RMS Duration Track -------------------------------------------------------------------------------- DR6 -0.40 dB -7.98 dB 2:58 03-Jic Boi DR6 -0.40 dB -8.09 dB 4:00 04-Black Star DR6 -0.40 dB -7.39 dB 3:00 05-Kamikaze DR6 -0.40 dB -8.10 dB 3:18 06-No Hope DR6 -0.40 dB -8.30 dB 3:55 07-Take Control DR6 -0.40 dB -8.25 dB 3:16 08-Tone DR6 -0.40 dB -7.71 dB 2:48 09-Run For Your Life DR6 -0.40 dB -7.72 dB 3:19 10-Dark Place DR5 -0.40 dB -7.60 dB 3:57 11-Disco Otsego DR7 -0.40 dB -10.61 dB 3:55 12-From Heaven DR6 -0.40 dB -8.51 dB 4:03 13-Terrible Lie (Bonus Track) DR6 -0.40 dB -7.32 dB 2:39 14-Grover Yoda Data 14 (Bonus Track) -------------------------------------------------------------------------------- Number of tracks: 12 Official DR value: DR6 Samplerate: 48000 Hz Channels: 2 Bits per sample: 24 Bitrate: 1907 kbps Codec: FLAC ================================================================================

Всего файлов в раздаче: 15 
01 Stay Alive.flac29.74 MB
02 Z0mbie.flac26.40 MB
03 Jic Boi.flac41.56 MB
04 Black Star.flac54.83 MB
05 Kamikaze.flac40.96 MB
06 No Hope.flac46.06 MB
07 Take Control.flac53.21 MB
08 Tone.flac44.19 MB
09 Run For Your Life.flac38.58 MB
10 Dark Place.flac47.67 MB
Показать все файлы

Похожие раздачи по запросу - Static-X
2024-01-26 magnet Static-X - Project Regeneration, Vol. 2 (2024) MP3 113.33 MB ↑ 0 ↓ 0

Комментарии


Зарегистрируйтесь чтобы добавить комментарий
Торрент клиент
byTorrent - программа для загрузки торрент-файлов.

Скачать byTorrent.exe (1,5 МБ)

Скачать byTorrent.zip (0,6 МБ)

Поддержи torrent.by
российских рублей
(300 российских рублей это 4$)

Обратная связь rss

End game ©