↑↓torrent.by
Поиск
Логин:  Регистрация
Пароль:

Багажник / Trunk: Locked In (2023) WEB-DL 1080p от JNS82 | Sub

download Скачать торрент-файл   magnet Магнитная ссылка Размер: 6.28 GB Добавлен: 2024-01-26 17:00
Пиры будут получены из сети DHT
Последний сидер был замечен 2024-02-02 07:59
Багажник / Trunk Locked In Год выпуска: 2023 Выпущено: Германия, Outside the Club Жанр: драма, триллер Режиссер: Марк Шиссер / Marc Schießer В ролях: Зина Мартенс, Артём Гильц, Поал Каиро, Луиза Хельм, Чарльз Реттингхаус, Янина Захау О фильме: Малина просыпается дезориентированной в багажнике мчащейся машины и к своему ужасу обнаруживает, что она ничего не помнит. Имея мобильный телефон в качестве единственной связи с внешним миром, она ведет отчаянную борьбу за выживание. Продолжительность: 01:36:03 Перевод: Субтитры Субтитры: Русские, английские Автор релиза: JNS82. Формат: MKV Качество: WEB-DL 1080p Видео: MPEG-4 AVC, 8911 Кбит/с, 1920x960 Аудио #2: E-AC3 JOC, 6 ch, 448 Кбит/с | GER |
[+] MediaInfoОбщее Уникальный идентификатор : 148018839013302299352611054681758244062 (0x6F5B6435573B62F16A186E3780EA1CDE) Полное имя : D:TorrentsTrunk.Locked.In.2023.1080p_от_JNS82.mkv Формат : Matroska Версия формата : Version 4 Размер файла : 6,28 Гбайт Продолжительность : 1 ч. 36 м. Общий поток : 9 361 Кбит/сек Название фильма : Trunk.Locked.In.2023.1080p_от_JNS82 Дата кодирования : UTC 2024-01-26 07:08:44 Программа кодирования : mkvmerge v79.0 ('Funeral Pyres') 64-bit Библиотека кодирования : libebml v1.4.4 + libmatroska v1.7.1 Видео Идентификатор : 1 Формат : AVC Формат/Информация : Advanced Video Codec Профиль формата : High@L4 Настройки формата : CABAC / 4 Ref Frames Параметр CABAC формата : Да Параметр RefFrames формата : 4 кадра Идентификатор кодека : V_MPEG4/ISO/AVC Продолжительность : 1 ч. 36 м. Вид битрейта : Постоянный Битрейт : 8 911 Кбит/сек Номинальный битрейт : 10 000 Кбит/сек Ширина : 1 920 пикселей Высота : 960 пикселей Соотношение сторон : 2,000 Режим частоты кадров : Постоянный Частота кадров : 24,000 кадра/сек Цветовое пространство : YUV Субдискретизация насыщенности : 4:2:0 Битовая глубина : 8 бит Тип развёртки : Прогрессивная Бит/(Пиксели*Кадры) : 0.201 Размер потока : 5,98 Гбайт (95%) Default : Да Forced : Нет Цветовой диапазон : Limited Основные цвета : BT.709 Характеристики трансфера : BT.709 Коэффициенты матрицы : BT.709 Аудио Идентификатор : 2 Формат : E-AC-3 JOC Формат/Информация : Enhanced AC-3 with Joint Object Coding Коммерческое название : Dolby Digital Plus with Dolby Atmos Идентификатор кодека : A_EAC3 Продолжительность : 1 ч. 36 м. Вид битрейта : Постоянный Битрейт : 448 Кбит/сек Каналы : 6 каналов Channel layout : L R C LFE Ls Rs Частота : 48,0 КГц Частота кадров : 31,250 кадров/сек (1536 SPF) Метод сжатия : С потерями Размер потока : 308 Мбайт (5%) Заголовок : Original Язык : German Service kind : Complete Main Default : Да Forced : Нет Complexity index : 16 Number of dynamic objects : 15 Bed channel count : 1 канал Bed channel configuration : LFE Текст #1 Идентификатор : 3 Формат : UTF-8 Идентификатор кодека : S_TEXT/UTF8 Идентификатор кодека/Информация : UTF-8 Plain Text Продолжительность : 1 ч. 33 м. Битрейт : 82 бит/сек Count of elements : 1014 Размер потока : 56,2 Кбайт (0%) Заголовок : Язык : Russian Default : Нет Forced : Нет Текст #2 Идентификатор : 4 Формат : UTF-8 Идентификатор кодека : S_TEXT/UTF8 Идентификатор кодека/Информация : UTF-8 Plain Text Продолжительность : 1 ч. 28 м. Битрейт : 52 бит/сек Count of elements : 893 Размер потока : 34,2 Кбайт (0%) Заголовок : Язык : English Default : Нет Forced : Нет

Всего файлов в раздаче: 1 
Trunk.Locked.In.2023.1080p_от_JNS82.mkv6.28 GB

Похожие раздачи по запросу - Багажник
2024-02-02 magnet Багажник: Запертая / Trunk: Locked In (2023) WEB-DLRip-AVC от DoMiNo & селезень | P2 | ViruseProject 1.52 GB ↑ 0 ↓ 0
2024-02-02 magnet Багажник: Запертая / Trunk: Locked In (2023) WEB-DLRip-AVC от New-Team | P2 | ViruseProject 1.88 GB ↑ 0 ↓ 0
2024-02-02 magnet Багажник: Запертая / Trunk: Locked In (2023) WEB-DLRip от MegaPeer | P2 | ViruseProject 1.46 GB ↑ 0 ↓ 0
2024-02-02 magnet Багажник: Запертая / Trunk: Locked In (2023) WEB-DL 1080p | ViruseProject 1К6.58 GB ↑ 0 ↓ 0

Комментарии


Зарегистрируйтесь чтобы добавить комментарий
Торрент клиент
byTorrent - программа для загрузки торрент-файлов.

Скачать byTorrent.exe (1,5 МБ)

Скачать byTorrent.zip (0,6 МБ)

Поддержи torrent.by
российских рублей
(300 российских рублей это 4$)

Обратная связь rss

End game ©