↑↓torrent.by
Поиск
Логин:  Регистрация
Пароль:

Герой наших снов / Dream Scenario (2023) WEB-DLRip-AVC от DoMiNo & селезень | P, P2, A

download Скачать торрент-файл   magnet Магнитная ссылка Размер: 2.00 GB Добавлен: 2024-01-26 17:00
Пиры будут получены из сети DHT
Последний сидер был замечен сегодня в 00:29
Информация о фильме Название: Герой наших снов Оригинальное название: Dream Scenario Год выхода: 2023 Жанр: Драма, комедия, фантастика Режиссер: Кристоффер Боргли В ролях: Лили Бёрд, Николас Кейдж, Джулианна Николсон, Джессика Клемент, Стар Слэйд, Дэвид Клейн, Калеб Хорн, Лиз Аджеи, Паула Бодро, Марни МакПайл О фильме: Ничем непримечательный лысеющий профессор среднего возраста Пол Мэтьюс ведёт обычную профессорскую жизнь, преподаёт в университете и много лет вынашивает идею книги о коллективном разуме муравьёв. Внезапно мужчина становится дико популярным — люди всего мира начинают видеть его во сне. Теперь о Поле трезвонят все СМИ, его хочет рекрутировать агентство талантов, а сам профессор решает использовать эту волну хайпа, чтобы найти издателя для своей книги. Страна: США, A24, Square Peg, Wildling Pictures Продолжительность: 01:41:47 Перевод: Профессиональный (многоголосый, закадровый) | NewStudio 18 + Перевод: Профессиональный (двухголосый, закадровый) | ViruseProject 18 + Перевод: Авторский (одноголосый, закадровый) | Д. Есарев 18 + Субтитры: Русские, английские Файл Формат: Matroska Качество: WEB-DLRip-AVC Видео: 1024x554 at 23.976 fps, x264@L4.1, ~1783 kbps Аудио 1: AC3, 6 ch, ~448 kbps - | Русский | | NewStudio Аудио 2: AC3, 2 ch, ~192 kbps - | Русский | | ViruseProject Аудио 3: AC3, 6 ch, ~384 kbps - | Русский | | Д. Есарев Формат субтитров: softsub (SRT) ***Рип от: -=DoMiNo=-
[+] M/IGeneral Unique ID : 267175253459946942987085505503900541611 (0xC9001504C0C956C8295010E53BA122AB) Complete name : O:Dream.Scenario.2023.WEB-DLRip.seleZen.mkv Format : Matroska Format version : Version 4 File size : 2.00 GiB Duration : 1 h 41 min Overall bit rate : 2 810 kb/s Frame rate : 23.976 FPS Movie name : Dream.Scenario.2023.WEB-DLRip.seleZen Encoded date : 2024-01-26 08:05:14 UTC Writing application : mkvmerge v82.0 ('I'm The President') 64-bit Writing library : libebml v1.4.5 + libmatroska v1.7.1 Cover : Yes Attachments : cover.jpg / small_cover.jpg Video ID : 1 Format : AVC Format/Info : Advanced Video Codec Format profile : High@L4.1 Format settings : CABAC / 10 Ref Frames Format settings, CABAC : Yes Format settings, Reference : 10 frames Codec ID : V_MPEG4/ISO/AVC Duration : 1 h 41 min Bit rate : 1 783 kb/s Width : 1 024 pixels Height : 554 pixels Display aspect ratio : 1.85:1 Frame rate mode : Constant Frame rate : 23.976 (24000/1001) FPS Color space : YUV Chroma subsampling : 4:2:0 Bit depth : 8 bits Scan type : Progressive Bits/(Pixel*Frame) : 0.131 Stream size : 1.27 GiB (63%) Title : -=DoMiNo=- Writing library : x264 core 164 r3172 -DoMiNo Encoding settings : cabac=1 / ref=10 / deblock=1:0:0 / analyse=0x3:0x133 / me=umh / subme=10 / psy=1 / psy_rd=1.00:0.00 / mixed_ref=1 / me_range=32 / chroma_me=1 / trellis=2 / 8x8dct=1 / cqm=0 / deadzone=21,11 / fast_pskip=0 / chroma_qp_offset=-2 / threads=17 / lookahead_threads=4 / sliced_threads=0 / nr=0 / decimate=1 / interlaced=0 / bluray_compat=0 / constrained_intra=0 / bframes=12 / b_pyramid=2 / b_adapt=2 / b_bias=0 / direct=3 / weightb=1 / open_gop=0 / weightp=2 / keyint=250 / keyint_min=23 / scenecut=40 / intra_refresh=0 / rc_lookahead=60 / rc=crf / mbtree=0 / crf=21.8 / qcomp=0.60 / qpmin=0 / qpmax=69 / qpstep=4 / vbv_maxrate=50000 / vbv_bufsize=62500 / crf_max=0.0 / nal_hrd=none / filler=0 / ip_ratio=1.40 / pb_ratio=1.30 / aq=1:1.00 Language : English Default : Yes Forced : No Color range : Limited Color primaries : BT.709 Transfer characteristics : BT.709 Matrix coefficients : BT.709 Audio #1 ID : 2 Format : AC-3 Format/Info : Audio Coding 3 Commercial name : Dolby Digital Codec ID : A_AC3 Duration : 1 h 41 min Bit rate mode : Constant Bit rate : 448 kb/s Channel(s) : 6 channels Channel layout : L R C LFE Ls Rs Sampling rate : 48.0 kHz Frame rate : 31.250 FPS (1536 SPF) Compression mode : Lossy Stream size : 326 MiB (16%) Title : MVO -NewStudio Language : Russian Service kind : Complete Main Default : Yes Forced : No Audio #2 ID : 3 Format : AC-3 Format/Info : Audio Coding 3 Commercial name : Dolby Digital Codec ID : A_AC3 Duration : 1 h 41 min Bit rate mode : Constant Bit rate : 192 kb/s Channel(s) : 2 channels Channel layout : L R Sampling rate : 48.0 kHz Frame rate : 31.250 FPS (1536 SPF) Compression mode : Lossy Stream size : 140 MiB (7%) Title : DVO -ViruseProject Language : Russian Service kind : Complete Main Default : No Forced : No Audio #3 ID : 4 Format : AC-3 Format/Info : Audio Coding 3 Commercial name : Dolby Digital Codec ID : A_AC3 Duration : 1 h 41 min Bit rate mode : Constant Bit rate : 384 kb/s Channel(s) : 6 channels Channel layout : L R C LFE Ls Rs Sampling rate : 48.0 kHz Frame rate : 31.250 FPS (1536 SPF) Compression mode : Lossy Stream size : 280 MiB (14%) Title : AVO -Д. Есарев Language : Russian Service kind : Complete Main Default : No Forced : No Text #1 ID : 5 Format : UTF-8 Codec ID : S_TEXT/UTF8 Codec ID/Info : UTF-8 Plain Text Duration : 1 h 35 min Bit rate : 128 b/s Frame rate : 0.267 FPS Count of elements : 1535 Stream size : 90.1 KiB (0%) Title : Full Language : Russian Default : No Forced : No Text #2 ID : 6 Format : UTF-8 Codec ID : S_TEXT/UTF8 Codec ID/Info : UTF-8 Plain Text Duration : 1 h 39 min Bit rate : 76 b/s Frame rate : 0.284 FPS Count of elements : 1699 Stream size : 55.7 KiB (0%) Title : Full Language : English Default : No Forced : No Text #3 ID : 7 Format : UTF-8 Codec ID : S_TEXT/UTF8 Codec ID/Info : UTF-8 Plain Text Duration : 1 h 40 min Bit rate : 82 b/s Frame rate : 0.304 FPS Count of elements : 1831 Stream size : 60.8 KiB (0%) Title : SDH Language : English Default : No Forced : No Menu 00:00:00.000 : en:Studio Logo 00:00:40.000 : en:Title Sequence 00:00:48.000 : en:Scene 3 00:02:46.000 : en:Scene 4 00:03:20.000 : en:Scene 5 00:03:52.000 : en:Scene 6 00:04:31.000 : en:Scene 7 00:05:03.000 : en:Scene 8 00:07:47.000 : en:Scene 9 00:11:28.000 : en:Scene 10 00:13:25.000 : en:Scene 11 00:15:44.000 : en:Scene 12 00:16:19.000 : en:Scene 13 00:17:20.000 : en:Scene 14 00:17:49.000 : en:Scene 15 00:18:22.000 : en:Scene 16 00:18:57.000 : en:Scene 17 00:20:30.000 : en:Scene 18 00:21:38.000 : en:Scene 19 00:23:43.000 : en:Scene 20 00:24:17.000 : en:Scene 21 00:25:16.000 : en:Scene 22 00:26:35.000 : en:Scene 23 00:28:44.000 : en:Scene 24 00:30:15.000 : en:Scene 25 00:31:42.000 : en:Scene 26 00:33:11.000 : en:Scene 27 00:34:46.000 : en:Scene 28 00:35:47.000 : en:Scene 29 00:37:58.000 : en:Scene 30 00:40:16.000 : en:Scene 31 00:41:21.000 : en:Scene 32 00:47:09.000 : en:Scene 33 00:50:03.000 : en:Scene 34 00:53:49.000 : en:Scene 35 00:54:30.000 : en:Scene 36 00:55:11.000 : en:Scene 37 00:56:48.000 : en:Scene 38 00:58:21.000 : en:Scene 39 01:00:32.000 : en:Scene 40 01:01:22.000 : en:Scene 41 01:01:53.000 : en:Scene 42 01:02:39.000 : en:Scene 43 01:03:13.000 : en:Scene 44 01:03:55.000 : en:Scene 45 01:04:30.000 : en:Scene 46 01:06:00.000 : en:Scene 47 01:06:45.000 : en:Scene 48 01:07:21.000 : en:Scene 49 01:08:43.000 : en:Scene 50 01:11:54.000 : en:Scene 51 01:12:44.000 : en:Scene 52 01:13:46.000 : en:Scene 53 01:14:26.000 : en:Scene 54 01:18:05.000 : en:Scene 55 01:20:01.000 : en:Scene 56 01:23:42.000 : en:Scene 57 01:24:24.000 : en:Scene 58 01:25:02.000 : en:Scene 59 01:25:53.000 : en:Scene 60 01:26:41.000 : en:Scene 61 01:28:08.000 : en:Scene 62 01:29:48.000 : en:Scene 63 01:30:56.000 : en:Scene 64 01:32:05.000 : en:Scene 65 01:33:31.000 : en:Scene 66 01:34:26.000 : en:Scene 67 01:36:21.000 : en:End Credits
Релиз: Присоединяйся к: Кликай на баннеры.

Всего файлов в раздаче: 1 
Dream.Scenario.2023.WEB-DLRip.seleZen.mkv2.00 GB

Похожие раздачи по запросу - Герой
2024-02-08 magnet Главный герой. Апокалипсис / Скал - борьба за выживание / SKAL - Fight for Survival (2023) WEB-DL 1080p | D 2.85 GB ↑ 0 ↓ 0
2024-01-26 magnet Герой наших снов / Dream Scenario (2023) WEB-DL 1080p от ExKinoRay | P, P2, A 7.91 GB ↑ 0 ↓ 0

Комментарии


Зарегистрируйтесь чтобы добавить комментарий
Торрент клиент
byTorrent - программа для загрузки торрент-файлов.

Скачать byTorrent.exe (1,5 МБ)

Скачать byTorrent.zip (0,6 МБ)

Поддержи torrent.by
российских рублей
(300 российских рублей это 4$)

Обратная связь rss

End game ©