↑↓torrent.by
Поиск
Логин:  Регистрация
Пароль:

Обитель зла: Раккун-Сити / Resident Evil: Welcome to Raccoon City (2021) HDRip-AVC от DoMiNo | D

download Скачать торрент-файл   magnet Магнитная ссылка Размер: 1.45 GB Добавлен: 2024-01-27 05:00
Пиры будут получены из сети DHT
Последний сидер был замечен 2024-01-28 14:52
Информация о фильме Название: Обитель зла: Раккун-Сити Оригинальное название: Resident Evil: Welcome to Raccoon City Год выпуска: 2021 Выпущено: Германия, Канада, США, Constantin Film, Davis Films Жанр: Ужасы, фантастика, боевик Режиссер: Йоханнес Робертс / Johannes Roberts В ролях: Ханна Джон-Кэймен, Кая Скоделарио, Нил МакДонаф, Том Хоппер, Робби Амелл, Донал Лог, Эван Джогиа, Ава Блэкуэлл, Лили Гао, Стефани Хокинс О фильме: Раккун-Сити, где когда-то располагался фармацевтический гигант Umbrella и вовсю бурлила жизнь, превратился в город-призрак. Компания давно переехала, но на ее месте глубоко под землей набирает силу великое зло. Когда оно вырвется на свободу, единственный шанс выжить уцелевшей горстке людей — сплотиться и узнать всю правду о корпорации Umbrellа. Продолжительность: 01:47:29 Перевод: Дублированный (профессиональный) | СинеЛаб СаундМикс Субтитры: Русские (Forced, 2 x full), английские, французские Файл Формат: Matroska Качество: HDRip-AVC Видео: 1024x428 at 23.976 fps, x264@L4.1, ~1552 kbps Аудио: AC3, 6 ch, ~384 kbps - | Русский | Формат субтитров: softsub (SRT) ***Релиз от: -=DoMiNo=-
[+] M/Ix264 : frame I:978 Avg QP:12.35 size: 53660 x264 : frame P:31753 Avg QP:15.43 size: 18354 x264 : frame B:121901 Avg QP:18.27 size: 5037 General Unique ID : 116979023148160693901301052388957438367 (0x580157217AFE5DDBDB02CEC1C8AB419F) Complete name : H:Resident.Evil.2021.DUB.HDRip.x264.mkv Format : Matroska Format version : Version 4 File size : 1.45 GiB Duration : 1 h 47 min Overall bit rate : 1 936 kb/s Encoded date : UTC 2022-01-31 08:59:06 Writing application : mkvmerge v64.0.0 ('Willows') 64-bit Writing library : libebml v1.4.2 + libmatroska v1.6.4 Cover : Yes Attachments : cover.jpg / cover 2.jpg Video ID : 1 Format : AVC Format/Info : Advanced Video Codec Format profile : High@L4.1 Format settings : CABAC / 12 Ref Frames Format settings, CABAC : Yes Format settings, Reference : 12 frames Codec ID : V_MPEG4/ISO/AVC Duration : 1 h 47 min Bit rate : 1 552 kb/s Width : 1 024 pixels Height : 428 pixels Display aspect ratio : 2.40:1 Frame rate mode : Constant Frame rate : 23.976 (24000/1001) FPS Color space : YUV Chroma subsampling : 4:2:0 Bit depth : 8 bits Scan type : Progressive Bits/(Pixel*Frame) : 0.148 Stream size : 1.16 GiB (80%) Title : -=DoMiNo=- Writing library : x264 core 164 r3085 0bb85e8 Encoding settings : cabac=1 / ref=12 / deblock=1:-3:-2 / analyse=0x3:0x133 / me=umh / subme=10 / psy=1 / psy_rd=1.00:0.00 / mixed_ref=1 / me_range=32 / chroma_me=1 / trellis=2 / 8x8dct=1 / cqm=0 / deadzone=21,11 / fast_pskip=0 / chroma_qp_offset=-2 / threads=17 / lookahead_threads=3 / sliced_threads=0 / nr=0 / decimate=0 / interlaced=0 / bluray_compat=0 / constrained_intra=0 / bframes=10 / b_pyramid=2 / b_adapt=2 / b_bias=0 / direct=3 / weightb=1 / open_gop=0 / weightp=2 / keyint=250 / keyint_min=23 / scenecut=40 / intra_refresh=0 / rc_lookahead=60 / rc=2pass / mbtree=0 / bitrate=1552 / ratetol=1.0 / qcomp=0.70 / qpmin=0 / qpmax=69 / qpstep=4 / cplxblur=20.0 / qblur=0.5 / vbv_maxrate=50000 / vbv_bufsize=62500 / nal_hrd=none / filler=0 / ip_ratio=1.40 / pb_ratio=1.30 / aq=3:0.80 Language : English Default : Yes Forced : No Color range : Limited Color primaries : BT.709 Matrix coefficients : BT.709 Audio ID : 2 Format : AC-3 Format/Info : Audio Coding 3 Commercial name : Dolby Digital Codec ID : A_AC3 Duration : 1 h 47 min Bit rate mode : Constant Bit rate : 384 kb/s Channel(s) : 6 channels Channel layout : L R C LFE Ls Rs Sampling rate : 48.0 kHz Frame rate : 31.250 FPS (1536 SPF) Compression mode : Lossy Stream size : 295 MiB (20%) Title : DUB Language : Russian Service kind : Complete Main Default : No Forced : No Text #1 ID : 3 Format : UTF-8 Codec ID : S_TEXT/UTF8 Codec ID/Info : UTF-8 Plain Text Duration : 1 h 35 min Bit rate : 3 b/s Count of elements : 51 Stream size : 2.58 KiB (0%) Title : Forced Language : Russian Default : No Forced : Yes Text #2 ID : 4 Format : UTF-8 Codec ID : S_TEXT/UTF8 Codec ID/Info : UTF-8 Plain Text Duration : 1 h 39 min Bit rate : 50 b/s Count of elements : 850 Stream size : 36.9 KiB (0%) Title : Full Language : Russian Default : No Forced : No Text #3 ID : 5 Format : UTF-8 Codec ID : S_TEXT/UTF8 Codec ID/Info : UTF-8 Plain Text Duration : 1 h 39 min Bit rate : 56 b/s Count of elements : 805 Stream size : 40.9 KiB (0%) Title : Full Language : Russian Default : No Forced : No Text #4 ID : 6 Format : UTF-8 Codec ID : S_TEXT/UTF8 Codec ID/Info : UTF-8 Plain Text Duration : 1 h 46 min Bit rate : 40 b/s Count of elements : 1437 Stream size : 31.7 KiB (0%) Title : Full Language : English Default : No Forced : No Text #5 ID : 7 Format : UTF-8 Codec ID : S_TEXT/UTF8 Codec ID/Info : UTF-8 Plain Text Duration : 1 h 46 min Bit rate : 44 b/s Count of elements : 1473 Stream size : 34.5 KiB (0%) Title : SDH Language : English Default : No Forced : No Text #6 ID : 8 Format : UTF-8 Codec ID : S_TEXT/UTF8 Codec ID/Info : UTF-8 Plain Text Duration : 1 h 30 min Bit rate : 1 b/s Count of elements : 30 Stream size : 795 Bytes (0%) Title : French (Canada) Language : French Default : No Forced : No Menu 00:00:00.000 : en:Chapter 01 00:10:02.644 : en:Chapter 02 00:18:14.176 : en:Chapter 03 00:26:05.773 : en:Chapter 04 00:33:51.071 : en:Chapter 05 00:38:29.599 : en:Chapter 06 00:45:53.834 : en:Chapter 07 00:51:21.245 : en:Chapter 08 00:54:49.286 : en:Chapter 09 01:00:29.751 : en:Chapter 10 01:05:52.991 : en:Chapter 11 01:10:04.075 : en:Chapter 12 01:13:17.810 : en:Chapter 13 01:14:56.325 : en:Chapter 14 01:18:43.344 : en:Chapter 15 01:32:31.671 : en:Chapter 16
[+] Скриншоты

Всего файлов в раздаче: 1 
Resident.Evil.2021.DUB.HDRip.x264.mkv1.45 GB

Похожие раздачи по запросу - Обитель
2024-01-30 magnet Обитель зла: Раккун-Сити / Resident Evil: Welcome to Raccoon City [2021, ужасы, фантастика, боевик, HDRip-AVC] Dub (СинеЛаб СаундМикс) 1.46 GB ↑ 0 ↓ 2
2024-01-27 magnet Обитель зла: Раккун-Сити / Resident Evil: Welcome to Raccoon City (2021) BDRip 720p от ExKinoRay | D, P, A 5.86 GB ↑ 0 ↓ 0
2024-01-27 magnet Обитель зла: Раккун-Сити / Resident Evil: Welcome to Raccoon City (2021) BDRip 1080p от ExKinoRay | D, P, A 11.21 GB ↑ 0 ↓ 0
2023-07-26 magnet Обитель зла: Остров смерти / Biohazard: Death Island / Resident Evil: Death Island (2023) UHD BDRemux 2160p от селезень | 4K | HDR | P 38.20 GB ↑ 0 ↓ 0
2023-07-25 magnet Обитель зла: Остров смерти / Biohazard: Death Island / Resident Evil: Death Island (2023) WEB-DL 1080p от New-Team | Jaskier 4.86 GB ↑ 0 ↓ 0
2023-07-25 magnet Обитель зла: Остров смерти / Biohazard: Death Island / Resident Evil: Death Island (2023) WEB-DL 1080p от New-Team | HDR10 | Jaskier 5.58 GB ↑ 0 ↓ 0

Комментарии

raja4u
Какаха полная. Интересно, сколько еще будут эксплуатировать это название. Первая часть была хороша, дальше с каждым разом всё какушастее и какушастее...


Зарегистрируйтесь чтобы добавить комментарий
Торрент клиент
byTorrent - программа для загрузки торрент-файлов.

Скачать byTorrent.exe (1,5 МБ)

Скачать byTorrent.zip (0,6 МБ)

Поддержи torrent.by
российских рублей
(300 российских рублей это 4$)

Обратная связь rss

End game ©