↑↓torrent.by
Поиск
Логин:  Регистрация
Пароль:

Мстители: Война бесконечности / Avengers: Infinity War (2018) HybridRip-AVC от DoMiNo | D | Open Matte

download Скачать торрент-файл   magnet Магнитная ссылка Размер: 4.35 GB Добавлен: 2024-01-27 11:00
Пиры будут получены из сети DHT
Последний сидер был замечен 2024-02-18 22:42
Информация о фильме Название: Мстители: Война бесконечности Оригинальное название: Avengers: Infinity War Год выпуска: 2018 Жанр: Фантастика, фэнтези, боевик, приключения Режиссер: Энтони Руссо, Джо Руссо В ролях: Роберт Дауни мл., Крис Хемсворт, Марк Руффало, Крис Эванс, Скарлетт Йоханссон, Дон Чидл, Бенедикт Камбербэтч, Том Холланд (II), Чэдвик Боузмэн, Зои Салдана О фильме: Пока Мстители и их союзники продолжают защищать мир от различных опасностей, с которыми не смог бы справиться один супергерой, новая угроза возникает из космоса: Танос. Межгалактический тиран преследует цель собрать все шесть Камней Бесконечности — артефакты невероятной силы, с помощью которых можно менять реальность по своему желанию. Всё, с чем Мстители сталкивались ранее, вело к этому моменту — судьба Земли никогда ещё не была столь неопределённой. Страна: США Студия: Marvel Studios Продолжительность: 02:29:21 Перевод: Профессиональный (дублированный) Субтитры: Русские (forced, full, SDH), английские Файл Формат: Matroska Качество: HybridRip-AVC -BLUEBIRD] Видео: High@L4.1, ~3531 Kбит/сек, 1024x576, 23.976 кадр/с - Fullframe Аудио: 48 kHz, AC3, 3/2 (L,C,R,l,r) + LFE ch, ~640 Kбит/сек ***Релиз от: -=DoMiNo=- Blu-Ray vs Hybrid Open Matte Мстители: Финал / Avengers: Endgame (2019) HybridRip-AVC | D | iTunes | Open Matte
[+] Примечания:ЦитатаКто-то писал:Название фильма локализовано. OAR BD наложен поверх WEB-DL open matte с помощью AutoOverlay AviSynth plugin, за работу с видеорядом спасибо random0 Open Matte версия фильма, имеет большее наполнение кадра, по сравнению с блюрэй.
[+] M/Ix264 info: frame I:1513 Avg QP:13.45 size:101832 x264 info: frame P:57461 Avg QP:17.17 size: 35206 x264 info: frame B:155881 Avg QP:18.61 size: 11412 x264 info: consecutive B-frames: 7.0% 5.2% 9.8% 17.6% 13.7% 37.7% 6.2% 2.0% 0.4% 0.2% 0.1% 0.2% 0.1% 0.0% 0.0% 0.0% 0.0% General Complete name : Мстители- Война бесконечности_(2009)_HybridRip-AVC_O.M_.mkv Format : Matroska Format version : Version 4 File size : 4.35 GiB Duration : 2 h 29 min Overall bit rate : 4 174 kb/s Movie name : Мстители: Война бесконечности Encoded date : UTC 2019-01-02 05:37:15 Writing application : mkvmerge v29.0.0 ('Like It Or Not') 64-bit Writing library : libebml v1.3.6 + libmatroska v1.4.9 Attachments : poster.jpg / poster.jpg Video ID : 1 Format : AVC Format/Info : Advanced Video Codec Format profile : High@L4.1 Format settings : CABAC / 14 Ref Frames Format settings, CABAC : Yes Format settings, ReFrames : 14 frames Codec ID : V_MPEG4/ISO/AVC Duration : 2 h 29 min Bit rate : 3 531 kb/s Width : 1 024 pixels Height : 576 pixels Display aspect ratio : 16:9 Frame rate mode : Constant Frame rate : 23.976 (24000/1001) FPS Color space : YUV Chroma subsampling : 4:2:0 Bit depth : 8 bits Scan type : Progressive Bits/(Pixel*Frame) : 0.250 Stream size : 3.68 GiB (85%) Title : RIP_BY_-=DoMiNo=- Writing library : x264 core 157 r2935M 545de2f Encoding settings : cabac=1 / ref=14 / deblock=1:-2:-2 / analyse=0x3:0x133 / me=umh / subme=11 / psy=1 / psy_rd=1.00:0.05 / mixed_ref=1 / me_range=48 / chroma_me=1 / trellis=2 / 8x8dct=1 / cqm=0 / deadzone=21,11 / fast_pskip=0 / chroma_qp_offset=-3 / threads=6 / lookahead_threads=1 / sliced_threads=0 / nr=0 / decimate=1 / interlaced=0 / bluray_compat=0 / constrained_intra=0 / bframes=16 / b_pyramid=2 / b_adapt=2 / b_bias=0 / direct=3 / weightb=1 / open_gop=0 / weightp=2 / keyint=250 / keyint_min=24 / scenecut=40 / intra_refresh=0 / rc_lookahead=80 / rc=2pass / mbtree=0 / bitrate=3531 / ratetol=1.0 / qcomp=0.70 / qpmin=0 / qpmax=69 / qpstep=4 / cplxblur=20.0 / qblur=0.5 / vbv_maxrate=50000 / vbv_bufsize=62500 / nal_hrd=none / filler=0 / ip_ratio=1.40 / pb_ratio=1.30 / aq=2:0.80 Language : English Default : Yes Forced : No Color range : Limited Color primaries : BT.709 Transfer characteristics : BT.709 Matrix coefficients : BT.709 Audio ID : 2 Format : AC-3 Format/Info : Audio Coding 3 Commercial name : Dolby Digital Codec ID : A_AC3 Duration : 2 h 29 min Bit rate mode : Constant Bit rate : 640 kb/s Channel(s) : 6 channels Channel layout : L R C LFE Ls Rs Sampling rate : 48.0 kHz Frame rate : 31.250 FPS (1536 SPF) Bit depth : 16 bits Compression mode : Lossy Stream size : 684 MiB (15%) Title : Дубляж Language : Russian Service kind : Complete Main Default : Yes Forced : No Text #1 ID : 3 Format : UTF-8 Codec ID : S_TEXT/UTF8 Codec ID/Info : UTF-8 Plain Text Duration : 2 h 12 min Bit rate : 0 b/s Count of elements : 14 Stream size : 373 Bytes (0%) Title : Forced Language : Russian Default : Yes Forced : Yes Text #2 ID : 4 Format : UTF-8 Codec ID : S_TEXT/UTF8 Codec ID/Info : UTF-8 Plain Text Duration : 2 h 28 min Bit rate : 64 b/s Count of elements : 1596 Stream size : 70.4 KiB (0%) Title : Full Language : Russian Default : No Forced : No Text #3 ID : 5 Format : UTF-8 Codec ID : S_TEXT/UTF8 Codec ID/Info : UTF-8 Plain Text Duration : 2 h 28 min Bit rate : 76 b/s Count of elements : 2085 Stream size : 83.2 KiB (0%) Title : SDH Language : Russian Default : No Forced : No Text #4 ID : 6 Format : UTF-8 Codec ID : S_TEXT/UTF8 Codec ID/Info : UTF-8 Plain Text Duration : 2 h 28 min Bit rate : 42 b/s Count of elements : 1724 Stream size : 46.1 KiB (0%) Title : Full Language : English Default : No Forced : No Text #5 ID : 7 Format : UTF-8 Codec ID : S_TEXT/UTF8 Codec ID/Info : UTF-8 Plain Text Duration : 2 h 28 min Bit rate : 49 b/s Count of elements : 2067 Stream size : 53.9 KiB (0%) Title : SDH Language : English Default : No Forced : No Text #6 ID : 8 Format : UTF-8 Codec ID : S_TEXT/UTF8 Codec ID/Info : UTF-8 Plain Text Duration : 2 h 28 min Bit rate : 70 b/s Count of elements : 2067 Stream size : 76.5 KiB (0%) Title : SDH Colored Language : English Default : No Forced : No Menu 00:00:00.000 : en:00:00:00.000 00:11:28.730 : en:00:11:28.730 00:18:13.884 : en:00:18:13.884 00:27:23.809 : en:00:27:23.809 00:35:48.813 : en:00:35:48.813 00:42:23.541 : en:00:42:23.541 00:54:12.875 : en:00:54:12.875 00:59:36.740 : en:00:59:36.740 01:05:07.153 : en:01:05:07.153 01:10:53.666 : en:01:10:53.666 01:17:06.956 : en:01:17:06.956 01:24:14.758 : en:01:24:14.758 01:31:08.004 : en:01:31:08.004 01:42:00.406 : en:01:42:00.406 01:45:57.810 : en:01:45:57.810 01:53:04.069 : en:01:53:04.069 01:58:52.917 : en:01:58:52.917 02:03:58.181 : en:02:03:58.181 02:11:13.282 : en:02:11:13.282 02:17:31.285 : en:02:17:31.285
[+] Скриншоты

Всего файлов в раздаче: 1 
Мстители- Война бесконечности_(2018)_HybridRip-AVC_O.M_[-=DoMiNo=-].mkv4.35 GB

Похожие раздачи по запросу - Мстители
2024-01-27 magnet Мстители: Финал / Avengers: Endgame (2019) BDRip-AVC от HELLYWOOD | iTunes 1К2.83 GB ↑ 0 ↓ 0
2024-01-27 magnet Мстители: Финал / Avengers: Endgame (2019) BDRip 1080p от HELLYWOOD | iTunes 11.88 GB ↑ 0 ↓ 0

Комментарии


Зарегистрируйтесь чтобы добавить комментарий
Торрент клиент
byTorrent - программа для загрузки торрент-файлов.

Скачать byTorrent.exe (1,5 МБ)

Скачать byTorrent.zip (0,6 МБ)

Поддержи torrent.by
российских рублей
(300 российских рублей это 4$)

Обратная связь rss

End game ©