↑↓torrent.by
Поиск
Логин:  Регистрация
Пароль:

Как друзья Захара женили [01-12 из 17] (2023) WEBRip-AVC от Generalfilm | КПК

download Скачать торрент-файл   magnet Магнитная ссылка Размер: 1.45 GB Добавлен: 2024-01-27 11:00
Пиры будут получены из сети DHT
Последний сидер был замечен 2024-02-05 12:34
Информация о фильме Оригинальное название: Как друзья Захара женили / Захар открывает глаза Год выпуска: 2023 Жанр: Мелодрама, комедия, драма Режиссер: Борис Дергачёв, Павел Кривчик В ролях: Сергей Бондарчук (младший), Владимир Канухин, Никита Павленко, Борис Дергачёв, Даниил Вахрушев, Юлия Франц, Антон Филипенко, Анна Котова (II), Александра Ребенок, Софья Зайка, Анастасия Евграфова, Анастасия Резник, Денис Яковлев, Максим Лагашкин, Сергей Сгибнев О сериале: Жизнь Захара в одночасье перевернулась, когда накануне свадьбы и медового месяца в «ультра-олл-инклюзив» Египте его невеста Алёна решила, что они слишком разные. Оплаченный медовый месяц не случится, мальчишник превращается в сеанс терапии со стриптизёршей вместо психолога, а пришедшие на него друзья – Юрок, Макс, Игорёк – берутся за решение вопроса, как им всё-таки женить Захара. Первым делом они начинают слежку за Алёной, чтобы узнать, не изменяла ли она жениху. Так они встречают Жеку – молодого и манерного альфонса. Его умение втираться в доверие к женщинам друзья решают использовать, но в процессе узнают многое и о себе. Страна: Россия Студия: Кинокомпания "Good Story Media" Продолжительность: 12 х ~ 00:24:00 Перевод: Не требуется Файл Формат: MP4 Качество: WEBRip-AVC Видео: MPEG-4 AVC (x264), 640x320, ~ 500 kbps, 25.000 fps Аудио: AAC LC, 48.0 KHz, 2 ch, 128 Kbps Субтитры: Нет
[+] Скриншоты
[+] MIComplete name : D:киноKak.Druz'ya.Zahara.ZHenili.S01.2023.WEBRip-AVC.KPK.GFKak.Druz'ya.Zahara.ZHenili.s01e01.2023.WEBRip-AVC.KPK.GF.mp4 Format : MPEG-4 Codec ID : M4V (isom/iso2/avc1) File size : 111 MiB Duration : 24mn 35s Overall bit rate mode : Variable Overall bit rate : 634 Kbps Writing application : Lavf53.19.0 Video ID : 1 Format : AVC Format/Info : Advanced Video Codec Format profile : High@L4.1 Format settings, CABAC : Yes Format settings, ReFrames : 8 frames Codec ID : avc1 Codec ID/Info : Advanced Video Coding Duration : 24mn 35s Bit rate : 500 Kbps Width : 640 pixels Height : 320 pixels Display aspect ratio : 2.000 Frame rate mode : Constant Frame rate : 25.000 fps Color space : YUV Chroma subsampling : 4:2:0 Bit depth : 8 bits Scan type : Progressive Bits/(Pixel*Frame) : 0.098 Stream size : 87.9 MiB (79%) Writing library : x264 core 146 r2538 121396c Encoding settings : cabac=1 / ref=8 / deblock=1:-1:-1 / analyse=0x3:0x133 / me=umh / subme=10 / psy=1 / psy_rd=1.00:0.00 / mixed_ref=1 / me_range=24 / chroma_me=1 / trellis=2 / 8x8dct=1 / cqm=0 / deadzone=21,11 / fast_pskip=1 / chroma_qp_offset=-2 / threads=3 / lookahead_threads=1 / sliced_threads=0 / nr=0 / decimate=1 / interlaced=0 / bluray_compat=0 / constrained_intra=0 / bframes=8 / b_pyramid=2 / b_adapt=2 / b_bias=0 / direct=3 / weightb=1 / open_gop=0 / weightp=2 / keyint=250 / keyint_min=126 / scenecut=40 / intra_refresh=0 / rc_lookahead=40 / rc=2pass / mbtree=1 / bitrate=500 / ratetol=1.0 / qcomp=0.60 / qpmin=0 / qpmax=69 / qpstep=4 / cplxblur=20.0 / qblur=0.5 / ip_ratio=1.40 / aq=1:1.00 Menus : 3 Audio ID : 2 Format : AAC Format/Info : Advanced Audio Codec Format profile : LC Codec ID : 40 Duration : 24mn 35s Bit rate mode : Variable Bit rate : 128 Kbps Channel(s) : 2 channels Channel positions : Front: L R Sampling rate : 48.0 KHz Frame rate : 46.875 fps (1024 spf) Compression mode : Lossy Stream size : 22.5 MiB (20%) Default : Yes Alternate group : 1 Menus : 3
Релиз от:

Всего файлов в раздаче: 12 
Kak.Druz'ya.Zahara.ZHenili.s01e01.2023.WEBRip-AVC.KPK.GF.mp4111.50 MB
Kak.Druz'ya.Zahara.ZHenili.s01e02.2023.WEBRip-AVC.KPK.GF.mp4130.59 MB
Kak.Druz'ya.Zahara.ZHenili.s01e03.2023.WEBRip-AVC.KPK.GF.mp4113.07 MB
Kak.Druz'ya.Zahara.ZHenili.s01e04.2023.WEBRip-AVC.KPK.GF.mp4123.95 MB
Kak.Druz'ya.Zahara.ZHenili.s01e05.2023.WEBRip-AVC.KPK.GF.mp4105.97 MB
Kak.Druz'ya.Zahara.ZHenili.s01e06.2023.WEBRip-AVC.KPK.GF.mp4146.11 MB
Kak.Druz'ya.Zahara.ZHenili.s01e07.2023.WEBRip-AVC.KPK.GF.mp4124.30 MB
Kak.Druz'ya.Zahara.ZHenili.s01e08.2023.WEBRip-AVC.KPK.GF.mp4128.64 MB
Kak.Druz'ya.Zahara.ZHenili.s01e09.2023.WEBRip-AVC.KPK.GF.mp4131.42 MB
Kak.Druz'ya.Zahara.ZHenili.s01e10.2023.WEBRip-AVC.KPK.GF.mp4123.93 MB
Показать все файлы

Похожие раздачи по запросу - Как
2024-02-12 magnet Как заниматься сексом / How to Have Sex (2023) HDRip от ExKinoRay | D 748.88 MB ↑ 0 ↓ 0
2024-02-11 magnet Как заниматься сексом / How to Have Sex (2023) BDRip-AVC от DoMiNo & селезень | D 2.16 GB ↑ 0 ↓ 0
2024-02-11 magnet Как заниматься сексом / How to Have Sex (2023) BDRip 1080p от селезень | D 1К8.24 GB ↑ 0 ↓ 0
2024-02-11 magnet Как заниматься сексом / How to Have Sex (2023) BDRip 720p от DoMiNo & селезень | D 4.38 GB ↑ 0 ↓ 0
2024-02-11 magnet Как заниматься сексом / How to Have Sex (2023) BDRip-AVC от New-Team | D 1К1.46 GB ↑ 0 ↓ 0
2024-02-11 magnet Как заниматься сексом / How to Have Sex (2023) BDRip от MegaPeer | D 1.46 GB ↑ 0 ↓ 0
2024-02-08 magnet Владимир Малов - Техника. Как это работает. Детская энциклопедия (2017) PDF 38.37 MB ↑ 0 ↓ 0

Комментарии


Зарегистрируйтесь чтобы добавить комментарий
Торрент клиент
byTorrent - программа для загрузки торрент-файлов.

Скачать byTorrent.exe (1,5 МБ)

Скачать byTorrent.zip (0,6 МБ)

Поддержи torrent.by
российских рублей
(300 российских рублей это 4$)

Обратная связь rss

End game ©