↑↓torrent.by
Поиск
Логин:  Регистрация
Пароль:

Erasure - The Neon [Live, 24Bit, Hi-Res] (2024) FLAC

download Скачать торрент-файл   magnet Магнитная ссылка Размер: 1.13 GB Добавлен: 2024-01-27 11:00
Пиры будут получены из сети DHT
Последний сидер был замечен 2024-02-04 22:16
Erasure - The Neon (Live) (2024) Название: The Neon - Live Исполнитель: Erasure Жанр: Synth-pop, Dance-pop Издание: Mute Источник: qobuz Продолжительность: 01:27:30 Кодек: FLAC 24/48 Битрейт: Lossless|WEB-DL Тип рипа: tracks Треклист: 01. Intro (Joe 90) (Live) 02. Chorus (Live) 03. Hey Now (Think I Got A Feeling) (Live) 04. Fill Us With Fire (Live) 05. Sacred (Live) 06. The Circus (Live) 07. Who Needs Love Like That (Live) 08. Nerves of Steel (Live) 09. Blue Savannah (Live) 10. Chains of Love (Live) 11. Turns The Love To Anger (Live) 12. Careful What I Try to Do (Live) 13. Sometimes (Live) 14. Save Me Darling (Live) 15. Shot A Satellite (Live) 16. Love To Hate You (Live) 17. Love Is A Stranger (Live) 18. Drama! (Live) 19. Always (Live) 20. Stop! (Live) 21. Push Me Shove Me (Live) 22. Victim of Love (Live) 23. Oh L'Amour (Live) 24. A Little Respect (Live)
[+] Отчёт Замер динамического диапазона (DR): foobar2000 2.0 / Замер динамического диапазона (DR) 1.1.1 Дата отчёта: 2024-01-26 14:11:48 -------------------------------------------------------------------------------- Анализ: Erasure / The Neon (Live) -------------------------------------------------------------------------------- DR Пики RMS Продолжительность трека -------------------------------------------------------------------------------- DR12 -1.54 дБ -15.59 дБ 0:52 01-Intro (Joe 90) (Live) DR10 -0.22 дБ -11.17 дБ 4:43 02-Chorus (Live) DR9 -0.24 дБ -10.55 дБ 3:51 03-Hey Now (Think I Got A Feeling) (Live) DR9 -0.22 дБ -11.03 дБ 3:15 04-Fill Us With Fire (Live) DR9 -0.22 дБ -11.65 дБ 3:43 05-Sacred (Live) DR10 -0.23 дБ -11.81 дБ 4:03 06-The Circus (Live) DR8 -0.22 дБ -10.26 дБ 2:55 07-Who Needs Love Like That (Live) DR8 0.00 дБ -9.66 дБ 4:25 08-Nerves of Steel (Live) DR9 -0.22 дБ -10.76 дБ 5:16 09-Blue Savannah (Live) DR9 -0.22 дБ -10.23 дБ 3:35 10-Chains of Love (Live) DR9 -0.23 дБ -10.61 дБ 3:56 11-Turns The Love To Anger (Live) DR10 -0.23 дБ -11.79 дБ 3:25 12-Careful What I Try to Do (Live) DR9 -0.22 дБ -10.57 дБ 3:20 13-Sometimes (Live) DR9 -0.22 дБ -11.02 дБ 3:37 14-Save Me Darling (Live) DR9 -0.22 дБ -10.20 дБ 3:49 15-Shot A Satellite (Live) DR9 -0.23 дБ -10.42 дБ 4:08 16-Love To Hate You (Live) DR9 -0.25 дБ -10.57 дБ 3:38 17-Love Is A Stranger (Live) DR9 -0.22 дБ -10.83 дБ 4:01 18-Drama! (Live) DR9 -0.24 дБ -11.37 дБ 3:46 19-Always (Live) DR9 -0.22 дБ -10.41 дБ 3:13 20-Stop! (Live) DR10 -0.22 дБ -11.71 дБ 3:03 21-Push Me Shove Me (Live) DR9 -0.22 дБ -10.28 дБ 3:41 22-Victim of Love (Live) DR8 -0.24 дБ -10.41 дБ 3:30 23-Oh L'Amour (Live) DR8 -0.22 дБ -9.88 дБ 3:45 24-A Little Respect (Live) -------------------------------------------------------------------------------- Количество треков: 24 Реальные значения DR: DR9 Частота: 48000 Гц Каналов: 2 Разрядность: 24 Битрейт: 1932 кбит/с Кодек: FLAC ================================================================================

Всего файлов в раздаче: 26 
01 - Intro (Joe 90) (Live).flac11.73 MB
02 - Chorus (Live).flac63.64 MB
03 - Hey Now (Think I Got A Feeling) (Live).flac50.00 MB
04 - Fill Us With Fire (Live).flac44.01 MB
05 - Sacred (Live).flac46.42 MB
06 - The Circus (Live).flac51.93 MB
07 - Who Needs Love Like That (Live).flac39.23 MB
08 - Nerves of Steel (Live).flac54.09 MB
09 - Blue Savannah (Live).flac69.16 MB
10 - Chains of Love (Live).flac47.75 MB
Показать все файлы

Похожие раздачи по запросу - Erasure
2024-01-27 magnet Erasure - The Neon [Live] (2024) MP3 206.78 MB ↑ 0 ↓ 0

Комментарии


Зарегистрируйтесь чтобы добавить комментарий
Торрент клиент
byTorrent - программа для загрузки торрент-файлов.

Скачать byTorrent.exe (1,5 МБ)

Скачать byTorrent.zip (0,6 МБ)

Поддержи torrent.by
российских рублей
(300 российских рублей это 4$)

Обратная связь rss

End game ©