↑↓torrent.by
Поиск
Логин:  Регистрация
Пароль:

Операция в Красном море / Hong hai xing dong / Operation Red Sea (2018) BDRip 720p | D, P

download Скачать торрент-файл   magnet Магнитная ссылка Размер: 7.97 GB Добавлен: 2024-01-27 11:00
Пиры будут получены из сети DHT
Последний сидер был замечен 2024-02-01 23:50
Информация о фильме Название: Операция в Красном море Оригинальное название: Hong hai xing dong / Operation Red Sea Год выхода: 2018 Жанр: боевик Режиссер: Данте Лам / Dante Lam В ролях: Чжан И, Джонни Хуан, Хай Цин, Ду Цзян, Цзян Луся, Санаа Алауи, Инь Фан, Ван Юйтянь, Го Цзяхао, Генри Мак О фильме: 2015 год, гражданская война в Йемене. Правительство Китая издаёт приказ о немедленной эвакуации своих граждан. Опасное задание поручают штурмовой группе Цзяолун, известной своей слаженной работой даже в экстремальных ситуациях. Недавно отряд смог обезвредить сомалийских пиратов, напавших на китайское грузовое судно ещё до прибытия основных сил флота. Восемь бойцов оказываются в гуще событий, пытаясь спасти мирных жителей. Но коварная засада приводит к большим потерям, а главарь террористов получают доступ к материалам, из которых можно сделать грязную бомбу. Выжившим китайским спецназовцам предстоит дать неравный бой, чтобы предотвратить глобальную катастрофу. Страна: Гонконг, Китай Студия: Bona Film Group, Emperor Film Production, Film Fireworks Production, P.L.A Navy Government TV Art Central of China, The, Star Dream Studio Media, Zak Productions Продолжительность: 02:18:38 Перевод 1: Профессиональный (дублированный) СиПиАй Филмз / CPI Films Перевод 2: Профессиональный (многоголосый закадровый) HDRezka Файл Качество: BDRip 720p | Delia Видео: 1280x536 at 24 fps, MPEG-4 AVC, ~6855 kbps avg Аудио 1: 48 kHz, AAC, 2/0 (L,R) ch, ~256 kbps avg | Dub, IVI Аудио 2: 48 kHz, AC3, 3/2 (L,C,R,l,r) + LFE ch, ~448 kbps avg | HDRezka Аудио 3: 48 kHz, AC3, 3/2 (L,C,R,l,r) + LFE ch, ~640 kbps avg | Chinese Субтитры: русские (Forced*, Full - IVI AI), английские, китайские * Форсированные субтитры нужны только для озвучки HDRezka. Семпл
[+] Скриншоты
[+] MediaInfoGeneral Unique ID : 161341675826628834190389433627044541802 (0x796146C7145ADB578DB05D43D10CF56A) Complete name : Operation.Red.Sea.2018.BDRip-AsiaOne-Delia_Kyle.mkv Format : Matroska Format version : Version 4 File size : 7.97 GiB Duration : 2 h 18 min Overall bit rate : 8 224 kb/s Encoded date : UTC 2024-01-26 17:23:12 Writing application : mkvmerge v82.0 ('I'm The President') 64-bit Writing library : libebml v1.4.5 + libmatroska v1.7.1 Cover : Yes Attachments : cover.jpg Video ID : 1 Format : AVC Format/Info : Advanced Video Codec Format profile : High@L4.1 Format settings : CABAC / 12 Ref Frames Format settings, CABAC : Yes Format settings, Reference frames : 12 frames Codec ID : V_MPEG4/ISO/AVC Duration : 2 h 18 min Bit rate : 6 855 kb/s Width : 1 280 pixels Height : 536 pixels Display aspect ratio : 2.40:1 Frame rate mode : Constant Frame rate : 24.000 FPS Color space : YUV Chroma subsampling : 4:2:0 Bit depth : 8 bits Scan type : Progressive Bits/(Pixel*Frame) : 0.416 Stream size : 6.64 GiB (83%) Writing library : x264 core 164 r3156+57M dac90dd t_mod_New Encoding settings : cabac=1 / ref=12 / deblock=1:-3:-3 / analyse=0x3:0x133 / me=umh / subme=11 / psy=1 / fade_compensate=0.00 / psy_rd=1.00:0.00 / mixed_ref=1 / me_range=32 / chroma_me=1 / trellis=2 / 8x8dct=1 / cqm=0 / deadzone=21,11 / fast_pskip=0 / chroma_qp_offset=-2 / threads=17 / lookahead_threads=4 / sliced_threads=0 / nr=0 / decimate=0 / interlaced=0 / bluray_compat=0 / constrained_intra=0 / fgo=0 / bframes=10 / b_pyramid=2 / b_adapt=2 / b_bias=0 / direct=3 / weightb=1 / open_gop=0 / weightp=2 / keyint=250 / keyint_min=24 / scenecut=40 / intra_refresh=0 / rc=crf / mbtree=0 / crf=16.8000 / qcomp=0.60 / qpmin=0:0:0 / qpmax=69:69:69 / qpstep=4 / ip_ratio=1.30 / pb_ratio=1.20 / aq=3:0.65 / aq-sensitivity=10.00 / aq-factor=1.00:1.00:1.00:1.00 / aq2=0 / aq3=0 / zones=0,3155,crf=16/4535,5983,crf=23/16685,26767,crf=16/197368,199644,crf=23 Default : Yes Forced : No Color range : Limited Color primaries : BT.709 Transfer characteristics : BT.709 Matrix coefficients : BT.709 Audio #1 ID : 2 Format : AAC LC Format/Info : Advanced Audio Codec Low Complexity Codec ID : A_AAC-2 Duration : 2 h 18 min Bit rate : 256 kb/s Channel(s) : 2 channels Channel layout : L R Sampling rate : 48.0 kHz Frame rate : 46.875 FPS (1024 SPF) Compression mode : Lossy Stream size : 254 MiB (3%) Title : Dub Language : Russian Default : Yes Forced : No Audio #2 ID : 3 Format : AC-3 Format/Info : Audio Coding 3 Commercial name : Dolby Digital Codec ID : A_AC3 Duration : 2 h 18 min Bit rate mode : Constant Bit rate : 448 kb/s Channel(s) : 6 channels Channel layout : L R C LFE Ls Rs Sampling rate : 48.0 kHz Frame rate : 31.250 FPS (1536 SPF) Compression mode : Lossy Stream size : 444 MiB (5%) Title : MVO Language : Russian Service kind : Complete Main Default : No Forced : No Audio #3 ID : 4 Format : AC-3 Format/Info : Audio Coding 3 Commercial name : Dolby Digital Format settings : Dolby Surround EX Codec ID : A_AC3 Duration : 2 h 18 min Bit rate mode : Constant Bit rate : 640 kb/s Channel(s) : 6 channels Channel layout : L R C LFE Ls Rs Sampling rate : 48.0 kHz Frame rate : 31.250 FPS (1536 SPF) Compression mode : Lossy Stream size : 635 MiB (8%) Title : Chinese Language : Chinese Service kind : Complete Main Default : No Forced : No Text #1 ID : 5 Format : UTF-8 Codec ID : S_TEXT/UTF8 Codec ID/Info : UTF-8 Plain Text Duration : 1 h 58 min Bit rate : 0 b/s Frame rate : 0.001 FPS Count of elements : 8 Stream size : 556 Bytes (0%) Title : Forced Language : Russian Default : No Forced : No Text #2 ID : 6 Format : UTF-8 Codec ID : S_TEXT/UTF8 Codec ID/Info : UTF-8 Plain Text Duration : 2 h 15 min Bit rate : 52 b/s Frame rate : 0.160 FPS Count of elements : 1297 Stream size : 52.0 KiB (0%) Title : Russian, AI Language : Russian Default : No Forced : No Text #3 ID : 7 Format : UTF-8 Codec ID : S_TEXT/UTF8 Codec ID/Info : UTF-8 Plain Text Duration : 2 h 13 min Bit rate : 30 b/s Frame rate : 0.181 FPS Count of elements : 1451 Stream size : 30.4 KiB (0%) Title : English Language : English Default : No Forced : No Text #4 ID : 8 Format : PGS Muxing mode : zlib Codec ID : S_HDMV/PGS Codec ID/Info : Picture based subtitle format used on BDs/HD-DVDs Duration : 2 h 13 min Bit rate : 23.5 kb/s Frame rate : 0.309 FPS Count of elements : 2487 Stream size : 22.5 MiB (0%) Title : Chinese #1 Language : Chinese Default : No Forced : No Text #5 ID : 9 Format : PGS Muxing mode : zlib Codec ID : S_HDMV/PGS Codec ID/Info : Picture based subtitle format used on BDs/HD-DVDs Duration : 2 h 13 min Bit rate : 21.7 kb/s Frame rate : 0.309 FPS Count of elements : 2487 Stream size : 20.8 MiB (0%) Title : Chinese #2 Language : Chinese Default : No Forced : No Menu 00:00:00.000 : en:Chapter 01 00:05:00.000 : en:Chapter 02 00:10:00.000 : en:Chapter 03 00:15:00.000 : en:Chapter 04 00:20:00.000 : en:Chapter 05 00:25:00.000 : en:Chapter 06 00:30:00.000 : en:Chapter 07 00:35:00.000 : en:Chapter 08 00:40:00.000 : en:Chapter 09 00:45:00.000 : en:Chapter 10 00:50:00.000 : en:Chapter 11 00:55:00.000 : en:Chapter 12 01:00:00.000 : en:Chapter 13 01:05:00.000 : en:Chapter 14 01:10:00.000 : en:Chapter 15 01:15:00.000 : en:Chapter 16 01:20:00.000 : en:Chapter 17 01:25:00.000 : en:Chapter 18 01:30:00.000 : en:Chapter 19 01:35:00.000 : en:Chapter 20 01:40:00.000 : en:Chapter 21 01:45:00.000 : en:Chapter 22 01:50:00.000 : en:Chapter 23 01:55:00.000 : en:Chapter 24 02:00:00.000 : en:Chapter 25 02:05:00.000 : en:Chapter 26 02:10:00.000 : en:Chapter 27 02:15:00.000 : en:Chapter 28
[+] Сравнение Blu-ray изданийFR ~ GER ~ HK ~ US
[+] Сравнение с исходником
[+] x264 logx264 : 1280x536p 0:0 @ 24/1 fps (cfr) x264 : color matrix: bt709 x264 : using cpu capabilities: MMX2 SSE2Fast SSSE3 SSE4.2 AVX FMA3 BMI2 AVX2 x264 : profile High, level 4.1, 4:2:0, 8-bit x264 : cabac=1 ref=12 deblock=1:-3:-3 analyse=0x3:0x133 me=umh subme=11 psy=1 fade_compensate=0.00 psy_rd=1.00:0.00 mixed_ref=1 me_range=32 chroma_me=1 trellis=2 8x8dct=1 cqm=0 deadzone=21,11 fast_pskip=0 chroma_qp_offset=-2 threads=17 lookahead_threads=4 sliced_threads=0 nr=0 decimate=0 interlaced=0 bluray_compat=0 constrained_intra=0 fgo=0 bframes=10 b_pyramid=2 b_adapt=2 b_bias=0 direct=3 weightb=1 open_gop=0 weightp=2 keyint=250 keyint_min=24 scenecut=40 intra_refresh=0 rc=crf mbtree=0 crf=16.8000 qcomp=0.60 qpmin=0:0:0 qpmax=69:69:69 qpstep=4 ip_ratio=1.30 pb_ratio=1.20 aq=3:0.65 aq-sensitivity=10.00 aq-factor=1.00:1.00:1.00:1.00 aq2=0 aq3=0 zones=0,3155,crf=16/4535,5983,crf=23/16685,26767,crf=16/197368,199644,crf=23 x264 : started at Sun Dec 31 14:35:25 2023 x264 : frame I:1615 Avg QP:16.87 size:134450 x264 : frame P:58537 Avg QP:18.71 size: 55534 x264 : frame B:139492 Avg QP:19.99 size: 26239 x264 : consecutive B-frames: 7.2% 8.2% 15.1% 23.4% 15.5% 23.4% 3.5% 1.3% 0.8% 0.7% 0.8% x264 : mb I I16..4: 4.1% 73.8% 22.1% x264 : mb P I16..4: 1.0% 19.2% 2.5% P16..4: 25.2% 30.5% 15.0% 3.4% 0.5% skip: 2.7% x264 : mb B I16..4: 0.1% 3.8% 0.4% B16..8: 34.0% 25.2% 5.5% direct: 9.8% skip:21.1% L0:40.1% L1:38.3% BI:21.6% x264 : 8x8 transform intra:84.8% inter:58.8% x264 : direct mvs spatial:99.9% temporal:0.1% x264 : coded y,uvDC,uvAC intra: 92.0% 89.2% 72.5% inter: 45.9% 40.5% 20.3% x264 : i16 v,h,dc,p: 15% 14% 4% 68% x264 : i8 v,h,dc,ddl,ddr,vr,hd,vl,hu: 10% 9% 9% 9% 13% 11% 13% 11% 14% x264 : i4 v,h,dc,ddl,ddr,vr,hd,vl,hu: 13% 9% 5% 8% 14% 12% 14% 10% 14% x264 : i8c dc,h,v,p: 42% 24% 15% 19% x264 : Weighted P-Frames: Y:21.7% UV:16.3% x264 : ref P L0: 50.0% 17.2% 14.5% 5.2% 3.8% 2.5% 2.0% 1.2% 1.0% 0.8% 0.8% 0.7% 0.2% 0.0% x264 : ref B L0: 81.1% 9.1% 3.7% 1.8% 1.4% 0.9% 0.7% 0.5% 0.4% 0.3% 0.1% x264 : ref B L1: 96.3% 3.7% x264 : kb/s:6855.19 x264 : encoded 199644 frames, 28.86 fps, 6855.19 kb/s, 6797.9 MB x264 : ended at Sun Dec 31 16:30:43 2023 x264 : encoding duration 1:55:18
Релиз от:

Всего файлов в раздаче: 1 
Operation.Red.Sea.2018.BDRip-AsiaOne-Delia_Kyle.mkv7.97 GB

Похожие раздачи по запросу - Операция
2024-01-27 magnet Операция в Красном море / Hong hai xing dong / Operation Red Sea (2018) BDRemux 1080p | D, P 30.77 GB ↑ 0 ↓ 0
2024-01-23 magnet Операция: Супермаркет [01-06 из 06] (2007) WEBRip-AVC от Generalfilm | КПК 1.38 GB ↑ 0 ↓ 0
2023-12-30 magnet Операция в Красном море / Hong hai xing dong / Operation Red Sea (2018) BDRip от New-Team | D 1.46 GB ↑ 0 ↓ 0
2023-11-13 magnet Операция «Вундерланд» (1989) SATRip от New-Team 1.09 GB ↑ 0 ↓ 0
2023-09-02 magnet Операция «Наполеон» / Operation Napoleon (2023) BDRip от New-Team | Pazl Voice 1.46 GB ↑ 0 ↓ 0
2023-07-30 magnet Тайлер Рейк: Операция по спасению 2 / Extraction 2 (2023) WEB-DL 1080p от Scarabey | D Red Head Sound 5.30 GB ↑ 0 ↓ 1
2023-06-20 magnet Тайлер Рейк: Операция по спасению 2 / Extraction 2 (2023) WEB-DLRip 720p от DoMiNo & селезень | P | Jaskier, TVShows, HDRezka Studio, NewComers 5.79 GB ↑ 0 ↓ 0

Комментарии


Зарегистрируйтесь чтобы добавить комментарий
Торрент клиент
byTorrent - программа для загрузки торрент-файлов.

Скачать byTorrent.exe (1,5 МБ)

Скачать byTorrent.zip (0,6 МБ)

Поддержи torrent.by
российских рублей
(300 российских рублей это 4$)

Обратная связь rss

End game ©