↑↓torrent.by
Поиск
Логин:  Регистрация
Пароль:

Малышка на драйве / Спецдоставка / Teuksong / Special Delivery (2022) BDRip 720p | D

download Скачать торрент-файл   magnet Магнитная ссылка Размер: 6.38 GB Добавлен: 2024-01-27 17:00
Пиры будут получены из сети DHT
Последний сидер был замечен сегодня в 01:34
Информация о фильме Название: Малышка на драйве / Спецдоставка Оригинальное название: Teuksong / Special Delivery Год выхода: 2022 Жанр: боевик, криминал, триллер Режиссер: Пак Тэ-мин / Park Dae-min В ролях: Пак Со-дам, Чон Хён-джун, Сон Сэ-бёк, Ким И-сон, Ём Хе-ран, Хан Хён-мин, Ён У-джин, Хо Дон-вон, О Рюн, Пэк То-гём О фильме: Девушке-курьеру Ын-ха любое задание по плечу. Не особо заморачиваясь с моральными и юридическими аспектами работы, она честно доставляет что угодно куда угодно, лишь бы заказчики хорошо платили. Но на очередном вызове всё идёт не так. Клиент так и не появился, зато преследуемый двумя громилами прибежал его маленький сын. Теперь Ын-ха предстоит выяснить, что делать с этим необычным «грузом», и как не попасться в лапы преследователей. Страна: Корея Южная Студия: M Pictures, Next Entertainment World Продолжительность: 01:48:50 Перевод: Профессиональный (дублированный) Велес Файл Качество: BDRip 720p | Encode by Delia Исходник: Special Delivery 2022 1080p GER Blu-ray AVC DTS-HD MA 5.1-SAViOURHD Видео: 1280x536 at 23.976 fps, MPEG-4 AVC, ~7491 kbps avg Аудио 1: 48 kHz, E-AC3, 3/2 (L,C,R,l,r) + LFE ch, ~448 kbps avg | Russian Аудио 2: 48 kHz, E-AC3, 3/2 (L,C,R,l,r) + LFE ch, ~1024 kbps avg | Korean Субтитры: русские (Кинопоиск HD), английские Семпл
[+] Скриншоты
[+] Сравнение с исходником
[+] x264 logx264 : 1280x536p 0:0 @ 24000/1001 fps (cfr) x264 : color matrix: bt709 x264 : using cpu capabilities: MMX2 SSE2Fast SSSE3 SSE4.2 AVX FMA3 BMI2 AVX2 x264 : profile High, level 4.1, 4:2:0, 8-bit x264 : cabac=1 ref=12 deblock=1:-3:-3 analyse=0x3:0x133 me=umh subme=11 psy=1 fade_compensate=0.00 psy_rd=1.00:0.00 mixed_ref=1 me_range=32 chroma_me=1 trellis=2 8x8dct=1 cqm=0 deadzone=21,11 fast_pskip=0 chroma_qp_offset=-2 threads=17 lookahead_threads=4 sliced_threads=0 nr=0 decimate=0 interlaced=0 bluray_compat=0 constrained_intra=0 fgo=0 bframes=16 b_pyramid=2 b_adapt=2 b_bias=0 direct=3 weightb=1 open_gop=0 weightp=2 keyint=250 keyint_min=23 scenecut=40 intra_refresh=0 rc=crf mbtree=0 crf=17.5000 qcomp=0.62 qpmin=0:0:0 qpmax=69:69:69 qpstep=4 ip_ratio=1.30 pb_ratio=1.20 aq=3:0.80 aq-sensitivity=10.00 aq-factor=1.00:1.00:1.00:1.00 aq2=0 aq3=0 zones=2189,2688,crf=16.5/6401,17798,crf=16.5/20683,21090,crf=16.5/21942,26840,crf=16.5/28395,31170,crf=16.5/43225,50831,crf=16.5/51526,54841,crf=16.5/57172,60909,crf=16.5/62302,67720,crf=16.5/68626,74930,crf=16.5/77365,80659,crf=16.5/82981,102303,crf=16.5/119008,146922,crf=16.5/152140,156566,crf=22.8 x264 : started at Tue Aug 15 13:51:48 2023 x264 : frame I:1323 Avg QP:15.18 size:117884 x264 : frame P:34279 Avg QP:16.86 size: 62194 x264 : frame B:120966 Avg QP:17.99 size: 31634 x264 : consecutive B-frames: 2.4% 3.4% 9.8% 18.5% 16.9% 28.3% 10.0% 7.6% 1.2% 0.4% 0.3% 0.1% 0.2% 0.2% 0.1% 0.1% 0.3% x264 : mb I I16..4: 3.8% 80.9% 15.3% x264 : mb P I16..4: 0.6% 27.2% 1.9% P16..4: 21.0% 28.7% 14.1% 2.5% 0.2% skip: 3.8% x264 : mb B I16..4: 0.1% 6.4% 0.2% B16..8: 31.7% 26.1% 7.9% direct: 8.5% skip:19.1% L0:44.0% L1:39.4% BI:16.6% x264 : 8x8 transform intra:92.6% inter:53.9% x264 : direct mvs spatial:99.9% temporal:0.1% x264 : coded y,uvDC,uvAC intra: 97.2% 95.6% 87.9% inter: 45.7% 45.5% 24.5% x264 : i16 v,h,dc,p: 15% 12% 5% 67% x264 : i8 v,h,dc,ddl,ddr,vr,hd,vl,hu: 9% 8% 13% 10% 12% 12% 12% 11% 13% x264 : i4 v,h,dc,ddl,ddr,vr,hd,vl,hu: 13% 9% 4% 9% 15% 14% 14% 10% 12% x264 : i8c dc,h,v,p: 52% 16% 13% 19% x264 : Weighted P-Frames: Y:17.1% UV:13.4% x264 : ref P L0: 45.1% 10.4% 18.2% 6.7% 5.4% 3.6% 3.3% 1.8% 1.7% 1.3% 1.3% 1.1% 0.2% 0.0% x264 : ref B L0: 70.9% 12.0% 6.1% 3.2% 2.3% 1.8% 1.4% 0.9% 0.7% 0.5% 0.2% x264 : ref B L1: 94.5% 5.5% x264 : kb/s:7490.74 x264 : encoded 156568 frames, 18.19 fps, 7490.74 kb/s, 5831.2 MB x264 : ended at Tue Aug 15 16:15:16 2023 x264 : encoding duration 2:23:28
[+] MediaInfoGeneral Unique ID : 62905121476344779856029209740652542309 (0x2F5315F122457DD8F7301870D6D37965) Complete name : Teuksong.2022.BDRip.720p-AsiaOne-Delia.mkv Format : Matroska Format version : Version 4 File size : 6.38 GiB Duration : 1 h 48 min Overall bit rate : 8 389 kb/s Movie name : Teuksong.2022.BDRip.720p-AsiaOne-Delia Encoded date : UTC 2023-08-20 00:53:18 Writing application : mkvmerge v78.0 ('Running') 64-bit Writing library : libebml v1.4.4 + libmatroska v1.7.1 Cover : Yes Attachments : cover.jpg Video ID : 1 Format : AVC Format/Info : Advanced Video Codec Format profile : High@L4.1 Format settings : CABAC / 12 Ref Frames Format settings, CABAC : Yes Format settings, Reference frames : 12 frames Codec ID : V_MPEG4/ISO/AVC Duration : 1 h 48 min Bit rate : 7 491 kb/s Width : 1 280 pixels Height : 536 pixels Display aspect ratio : 2.40:1 Frame rate mode : Constant Frame rate : 23.976 (24000/1001) FPS Color space : YUV Chroma subsampling : 4:2:0 Bit depth : 8 bits Scan type : Progressive Bits/(Pixel*Frame) : 0.455 Stream size : 5.69 GiB (89%) Writing library : x264 core 164 r3107+47 14e7f5d tMod@devel Encoding settings : cabac=1 / ref=12 / deblock=1:-3:-3 / analyse=0x3:0x133 / me=umh / subme=11 / psy=1 / fade_compensate=0.00 / psy_rd=1.00:0.00 / mixed_ref=1 / me_range=32 / chroma_me=1 / trellis=2 / 8x8dct=1 / cqm=0 / deadzone=21,11 / fast_pskip=0 / chroma_qp_offset=-2 / threads=17 / lookahead_threads=4 / sliced_threads=0 / nr=0 / decimate=0 / interlaced=0 / bluray_compat=0 / constrained_intra=0 / fgo=0 / bframes=16 / b_pyramid=2 / b_adapt=2 / b_bias=0 / direct=3 / weightb=1 / open_gop=0 / weightp=2 / keyint=250 / keyint_min=23 / scenecut=40 / intra_refresh=0 / rc=crf / mbtree=0 / crf=17.5000 / qcomp=0.62 / qpmin=0:0:0 / qpmax=69:69:69 / qpstep=4 / ip_ratio=1.30 / pb_ratio=1.20 / aq=3:0.80 / aq-sensitivity=10.00 / aq-factor=1.00:1.00:1.00:1.00 / aq2=0 / aq3=0 / zones=2189,2688,crf=16.5/6401,17798,crf=16.5/20683,21090,crf=16.5/21942,26840,crf=16.5/28395,31170,crf=16.5/43225,50831,crf=16.5/51526,54841,crf=16.5/57172,60909,crf=16.5/62302,67720,crf=16.5/68626,74930,crf=16.5/77365,80659,crf=16.5/82981,102303,crf=16.5/119008,146922,crf=16.5/152140,156566,crf=22.8 Language : English Default : Yes Forced : No Color range : Limited Color primaries : BT.709 Transfer characteristics : BT.709 Matrix coefficients : BT.709 Audio #1 ID : 2 Format : E-AC-3 Format/Info : Enhanced AC-3 Commercial name : Dolby Digital Plus Codec ID : A_EAC3 Duration : 1 h 48 min Bit rate mode : Constant Bit rate : 448 kb/s Channel(s) : 6 channels Channel layout : L R C LFE Ls Rs Sampling rate : 48.0 kHz Frame rate : 31.250 FPS (1536 SPF) Compression mode : Lossy Stream size : 349 MiB (5%) Title : Russian Language : Russian Service kind : Complete Main Default : Yes Forced : No Audio #2 ID : 3 Format : E-AC-3 Format/Info : Enhanced AC-3 Commercial name : Dolby Digital Plus Codec ID : A_EAC3 Duration : 1 h 48 min Bit rate mode : Constant Bit rate : 448 kb/s Channel(s) : 6 channels Channel layout : L R C LFE Ls Rs Sampling rate : 48.0 kHz Frame rate : 31.250 FPS (1536 SPF) Compression mode : Lossy Stream size : 349 MiB (5%) Title : Korean Language : Korean Service kind : Complete Main Default : No Forced : No Text #1 ID : 4 Format : UTF-8 Codec ID : S_TEXT/UTF8 Codec ID/Info : UTF-8 Plain Text Duration : 1 h 44 min Bit rate : 68 b/s Frame rate : 0.190 FPS Count of elements : 1193 Stream size : 52.3 KiB (0%) Title : Russian Language : Russian Default : No Forced : No Text #2 ID : 5 Format : UTF-8 Codec ID : S_TEXT/UTF8 Codec ID/Info : UTF-8 Plain Text Duration : 1 h 45 min Bit rate : 37 b/s Frame rate : 0.169 FPS Count of elements : 1064 Stream size : 28.7 KiB (0%) Title : English Language : English Default : No Forced : No Menu 00:00:00.000 : en:Chapter 01 00:07:37.790 : en:Chapter 02 00:17:07.985 : en:Chapter 03 00:26:49.608 : en:Chapter 04 00:37:36.337 : en:Chapter 05 00:47:04.071 : en:Chapter 06 00:55:42.714 : en:Chapter 07 01:06:04.961 : en:Chapter 08 01:15:32.694 : en:Chapter 09 01:23:35.719 : en:Chapter 10 01:31:41.537 : en:Chapter 11 01:40:49.877 : en:Chapter 12
Релиз от:

Всего файлов в раздаче: 1 
Teuksong.2022.BDRip.720p-AsiaOne-Delia.mkv6.38 GB

Похожие раздачи по запросу - Малышка
2024-02-04 magnet Малышка Лили / La petite Lili (2003) WEB-DL 1080p | P, A 9.57 GB ↑ 0 ↓ 0
2024-01-28 magnet Малышка на драйве / Спецдоставка / Teuksong / Special Delivery (2022) BDRip 720p от DoMiNo & селезень | D 1К5.16 GB ↑ 0 ↓ 0
2023-08-20 magnet Малышка на драйве / Спецдоставка / Teuksong / Special Delivery (2022) BDRip 1080p от New-Team | D 12.16 GB ↑ 0 ↓ 0

Комментарии


Зарегистрируйтесь чтобы добавить комментарий
Торрент клиент
byTorrent - программа для загрузки торрент-файлов.

Скачать byTorrent.exe (1,5 МБ)

Скачать byTorrent.zip (0,6 МБ)

Поддержи torrent.by
российских рублей
(300 российских рублей это 4$)

Обратная связь rss

End game ©