↑↓torrent.by
Поиск
Логин:  Регистрация
Пароль:

Малышка на драйве / Спецдоставка / Teuksong / Special Delivery (2022) BDRip 720p от DoMiNo & селезень | D

download Скачать торрент-файл   magnet Магнитная ссылка Размер: 5.16 GB Добавлен: 2024-01-28 05:00
Пиры будут получены из сети DHT
Последний сидер был замечен 2024-02-03 01:06
Информация о фильме Название: Малышка на драйве / Спецдоставка Оригинальное название: Teuksong / Special Delivery Год выпуска: 2022 Жанр: Боевик, криминал Режиссер: Пак Дэ Мин / Park Dae Min В ролях: Со Дам Пак, Сэ Бёк Сон, Ый Сон Ким, Хён Джун Чон, Хе Ран Ём, Хён Мин Хан, Дон Вон Хо, У Чжин Юн, Рён О, До Гём Пэк, Су О Син, Сын Хо Ю, Сок Хо Чон, Док Мун Чхве О фильме: Девушке-курьеру Ын-ха любое задание по плечу. Не особо заморачиваясь с моральными и юридическими аспектами работы, она честно доставляет что угодно куда угодно, лишь бы заказчики хорошо платили. Но на очередном вызове всё идёт не так. Клиент так и не появился, зато преследуемый двумя громилами прибежал его маленький сын. Теперь Ын-ха предстоит выяснить, что делать с этим необычным «грузом», и как не попасться в лапы преследователей. Выпущено: Южная Корея, Matchmaker Entertainment M Pictures Co., Ltd Продолжительность: 01:48:50 Перевод: Профессиональный (полное дублирование) | Велес Субтитры: Русские (Full (Кинопоиск HD)), английские Файл Формат: Matroska Качество: BDRip 720p Видео: 1280x536 at 23.976 fps, x264@L4.1, ~5436 kbps Аудио 1: AC3, 6 ch, ~448 kbps - | Русский | | Велес Аудио 2: E-AC3, 6 ch, ~448 kbps - | Русский | | Велес Аудио 3: AC3, 6 ch, ~448 kbps - | Корейский | Original Формат субтитров: softsub (SRT) ***Рип от: -=DoMiNo=-
[+] M/Ix264 : frame I:1520 Avg QP:16.11 size:100445 x264 : frame P:34057 Avg QP:17.31 size: 49377 x264 : frame B:120991 Avg QP:18.93 size: 21511 General Unique ID : 288294295763171847322647491656653144765 (0xD8E37632033C38446D58DA8D0FFF02BD) Complete name : D:Special.Delivery.2022.D.BDRip.720p.x264.seleZen.mkv Format : Matroska Format version : Version 4 File size : 5.16 GiB Duration : 1 h 48 min Overall bit rate : 6 782 kb/s Frame rate : 23.976 FPS Movie name : Special.Delivery.2022.D.BDRip.720p.x264.seleZen Encoded date : 2023-08-20 06:48:55 UTC Writing application : mkvmerge v78.0 ('Running') 64-bit Writing library : libebml v1.4.4 + libmatroska v1.7.1 Cover : Yes Attachments : cover.jpg / small_cover.jpg Video ID : 1 Format : AVC Format/Info : Advanced Video Codec Format profile : High@L4.1 Format settings : CABAC / 12 Ref Frames Format settings, CABAC : Yes Format settings, Reference : 12 frames Codec ID : V_MPEG4/ISO/AVC Duration : 1 h 48 min Bit rate : 5 436 kb/s Width : 1 280 pixels Height : 536 pixels Display aspect ratio : 2.40:1 Frame rate mode : Constant Frame rate : 23.976 (24000/1001) FPS Color space : YUV Chroma subsampling : 4:2:0 Bit depth : 8 bits Scan type : Progressive Bits/(Pixel*Frame) : 0.330 Stream size : 4.13 GiB (80%) Title : -=DoMiNo=- Writing library : x264 core 164 r3107+58M ae98796 t_mod_New | by -=DoMiNo=- | X86_64] Encoding settings : cabac=1 / ref=12 / deblock=1:-2:-2 / analyse=0x3:0x133 / me=umh / subme=10 / psy=1 / fade_compensate=0.00 / psy_rd=1.05:0.00 / mixed_ref=1 / me_range=32 / chroma_me=1 / trellis=2 / 8x8dct=1 / cqm=0 / deadzone=21,11 / fast_pskip=0 / chroma_qp_offset=-2 / threads=17 / lookahead_threads=4 / sliced_threads=0 / nr=0 / decimate=1 / interlaced=0 / bluray_compat=0 / constrained_intra=0 / fgo=0 / bframes=11 / b_pyramid=2 / b_adapt=2 / b_bias=0 / direct=3 / weightb=1 / open_gop=0 / weightp=2 / keyint=240 / keyint_min=23 / scenecut=40 / intra_refresh=0 / rc_lookahead=60 / rc=crf / mbtree=0 / crf=18.5000 / qcomp=0.70 / qpmin=0:0:0 / qpmax=69:69:69 / qpstep=4 / vbv_maxrate=50000 / vbv_bufsize=62500 / crf_max=0.0 / nal_hrd=none / filler=0 / ip_ratio=1.33 / pb_ratio=1.25 / aq=3:0.90 / aq-sensitivity=10.00 / aq-factor=1.00:1.00:1.00:1.00 / aq2=0 / aq3=0 Language : Korean Default : Yes Forced : No Audio #1 ID : 2 Format : AC-3 Format/Info : Audio Coding 3 Commercial name : Dolby Digital Codec ID : A_AC3 Duration : 1 h 48 min Bit rate mode : Constant Bit rate : 448 kb/s Channel(s) : 6 channels Channel layout : L R C LFE Ls Rs Sampling rate : 48.0 kHz Frame rate : 31.250 FPS (1536 SPF) Compression mode : Lossy Stream size : 349 MiB (7%) Title : DUB_ Language : Russian Service kind : Complete Main Default : Yes Forced : No Audio #2 ID : 3 Format : E-AC-3 Format/Info : Enhanced AC-3 Commercial name : Dolby Digital Plus Codec ID : A_EAC3 Duration : 1 h 48 min Bit rate mode : Constant Bit rate : 448 kb/s Channel(s) : 6 channels Channel layout : L R C LFE Ls Rs Sampling rate : 48.0 kHz Frame rate : 31.250 FPS (1536 SPF) Compression mode : Lossy Stream size : 349 MiB (7%) Title : DUB_ Language : Russian Service kind : Complete Main Default : No Forced : No Audio #3 ID : 4 Format : AC-3 Format/Info : Audio Coding 3 Commercial name : Dolby Digital Codec ID : A_AC3 Duration : 1 h 48 min Bit rate mode : Constant Bit rate : 448 kb/s Channel(s) : 6 channels Channel layout : L R C LFE Ls Rs Sampling rate : 48.0 kHz Frame rate : 31.250 FPS (1536 SPF) Compression mode : Lossy Stream size : 349 MiB (7%) Title : Original Language : Korean Service kind : Complete Main Default : No Forced : No Text #1 ID : 5 Format : UTF-8 Codec ID : S_TEXT/UTF8 Codec ID/Info : UTF-8 Plain Text Duration : 1 h 44 min Bit rate : 68 b/s Frame rate : 0.190 FPS Count of elements : 1193 Stream size : 52.3 KiB (0%) Title : Full Language : Russian Default : No Forced : No Text #2 ID : 6 Format : UTF-8 Codec ID : S_TEXT/UTF8 Codec ID/Info : UTF-8 Plain Text Duration : 1 h 45 min Bit rate : 37 b/s Frame rate : 0.169 FPS Count of elements : 1064 Stream size : 28.7 KiB (0%) Language : English Default : No Forced : No Menu 00:00:00.000 : en:第 01 章 00:07:37.790 : en:第 02 章 00:17:07.985 : en:第 03 章 00:26:49.608 : en:第 04 章 00:37:36.337 : en:第 05 章 00:47:04.071 : en:第 06 章 00:55:42.714 : en:第 07 章 01:06:04.961 : en:第 08 章 01:15:32.694 : en:第 09 章 01:23:35.719 : en:第 10 章 01:31:41.537 : en:第 11 章 01:40:49.877 : en:第 12 章
Релиз: Присоединяйся к: Кликай на баннеры.

Всего файлов в раздаче: 1 
Special.Delivery.2022.D.BDRip.720p.x264.seleZen.mkv5.16 GB

Похожие раздачи по запросу - Малышка
2024-02-04 magnet Малышка Лили / La petite Lili (2003) WEB-DL 1080p | P, A 9.57 GB ↑ 0 ↓ 0
2024-01-27 magnet Малышка на драйве / Спецдоставка / Teuksong / Special Delivery (2022) BDRip 720p | D 6.38 GB ↑ 0 ↓ 0
2023-08-20 magnet Малышка на драйве / Спецдоставка / Teuksong / Special Delivery (2022) BDRip 1080p от New-Team | D 12.16 GB ↑ 0 ↓ 0

Комментарии

data100
Затянутый и скучный, до Такси, Перевозчика и Малыша на драйве, как до луны пешком. Любители фапать на кореянок опять задрали рейтинг. Не больше 5.


Зарегистрируйтесь чтобы добавить комментарий
Торрент клиент
byTorrent - программа для загрузки торрент-файлов.

Скачать byTorrent.exe (1,5 МБ)

Скачать byTorrent.zip (0,6 МБ)

Поддержи torrent.by
российских рублей
(300 российских рублей это 4$)

Обратная связь rss

End game ©