↑↓torrent.by
Поиск
Логин:  Регистрация
Пароль:

Пустоши / Охотники с пустоши / Hwang-ya / Badland Hunters (2024) WEB-DLRip-AVC от DoMiNo & селезень | P, P2 | Jaskier, ViruseProject

download Скачать торрент-файл   magnet Магнитная ссылка Размер: 2.19 GB Добавлен: 2024-01-29 15:16
Пиры будут получены из сети DHT
Последний сидер был замечен 2024-02-23 20:21
Информация о фильме Название: Пустоши / Охотники с пустоши Оригинальное название: Hwang-ya / Badland Hunters Год выхода: 2024 Жанр: боевик, фантастика Режиссер: Хо-Мён хэ В ролях: Ма Дон-сок, Ли Хи-джун, Ли Джун-ён, Но Джон-и, Ан Джи-хе, Ким Ён-сон О фильме: Когда смертоносное землетрясение превращает Сеул в территорию беззакония, бесстрашный егерь бросается на помощь девочке, которую похитил безумный доктор. Страна: Южная Корея Продолжительность: 01:48:45 Перевод 1: Профессиональный (многоголосый, закадровый) | Jaskier Перевод 2: Профессиональный (двухголосый, закадровый) | ViruseProject Субтитры: Русские (Full), английские, корейские Файл Формат: Matroska Качество: WEB-DLRip-AVC | NF Видео: 1024x428 at 24.000 fps, x264@L4.1, ~2050 kbps Аудио 1: AC3, 6 ch, ~384 kbps - | Русский | | Jaskier Аудио 2: AC3, 6 ch, ~448 kbps - | Русский | | ViruseProject Формат субтитров: softsub (SRT) ***Рип от: -=DoMiNo=-
[+] M/I General Unique ID : 69036574163633460033469500015292857580 (0x33EFF5E63594D98643BA4AC9ADF63CEC) Complete name : O:Badland.Hunters.2024.MVO.DVO.WEB-DLRip.x264.seleZen.mkv Format : Matroska Format version : Version 4 File size : 2.19 GiB Duration : 1 h 48 min Overall bit rate : 2 885 kb/s Frame rate : 23.976 FPS Movie name : Badland.Hunters.2024.MVO.DVO.WEB-DLRip.x264.seleZen Encoded date : 2024-01-29 10:48:45 UTC Writing application : mkvmerge v82.0 ('I'm The President') 64-bit Writing library : libebml v1.4.5 + libmatroska v1.7.1 Cover : Yes Attachments : cover.jpg / small_cover.jpg Video ID : 1 Format : AVC Format/Info : Advanced Video Codec Format profile : High@L4.1 Format settings : CABAC / 14 Ref Frames Format settings, CABAC : Yes Format settings, Reference : 14 frames Codec ID : V_MPEG4/ISO/AVC Duration : 1 h 48 min Bit rate : 2 050 kb/s Width : 1 024 pixels Height : 428 pixels Display aspect ratio : 2.40:1 Frame rate mode : Constant Frame rate : 23.976 (24000/1001) FPS Color space : YUV Chroma subsampling : 4:2:0 Bit depth : 8 bits Scan type : Progressive Bits/(Pixel*Frame) : 0.195 Stream size : 1.56 GiB (71%) Title : -=DoMiNo=- Writing library : x264 core 164 r3173 -DoMiNo Encoding settings : cabac=1 / ref=14 / deblock=1:-2:-1 / analyse=0x3:0x133 / me=umh / subme=10 / psy=1 / psy_rd=1.00:0.15 / mixed_ref=1 / me_range=32 / chroma_me=1 / trellis=2 / 8x8dct=1 / cqm=0 / deadzone=21,11 / fast_pskip=0 / chroma_qp_offset=-3 / threads=17 / lookahead_threads=3 / sliced_threads=0 / nr=0 / decimate=0 / interlaced=0 / bluray_compat=0 / constrained_intra=0 / bframes=10 / b_pyramid=2 / b_adapt=2 / b_bias=0 / direct=1 / weightb=1 / open_gop=0 / weightp=2 / keyint=250 / keyint_min=23 / scenecut=40 / intra_refresh=0 / rc_lookahead=60 / rc=crf / mbtree=0 / crf=18.5 / qcomp=0.60 / qpmin=0 / qpmax=69 / qpstep=4 / vbv_maxrate=50000 / vbv_bufsize=62500 / crf_max=0.0 / nal_hrd=none / filler=0 / ip_ratio=1.40 / pb_ratio=1.30 / aq=1:0.90 Language : English Default : Yes Forced : No Audio #1 ID : 2 Format : AC-3 Format/Info : Audio Coding 3 Commercial name : Dolby Digital Codec ID : A_AC3 Duration : 1 h 48 min Bit rate mode : Constant Bit rate : 384 kb/s Channel(s) : 6 channels Channel layout : L R C LFE Ls Rs Sampling rate : 48.0 kHz Frame rate : 31.250 FPS (1536 SPF) Compression mode : Lossy Stream size : 299 MiB (13%) Title : Jaskier Language : Russian Service kind : Complete Main Default : Yes Forced : No Audio #2 ID : 3 Format : AC-3 Format/Info : Audio Coding 3 Commercial name : Dolby Digital Codec ID : A_AC3 Duration : 1 h 48 min Bit rate mode : Constant Bit rate : 448 kb/s Channel(s) : 6 channels Channel layout : L R C LFE Ls Rs Sampling rate : 48.0 kHz Frame rate : 31.250 FPS (1536 SPF) Compression mode : Lossy Stream size : 348 MiB (16%) Title : ViruseProject Language : Russian Service kind : Complete Main Default : No Forced : No Text #1 ID : 4 Format : UTF-8 Codec ID : S_TEXT/UTF8 Codec ID/Info : UTF-8 Plain Text Duration : 1 h 44 min Bit rate : 72 b/s Frame rate : 0.189 FPS Count of elements : 1191 Stream size : 55.4 KiB (0%) Language : Russian Default : No Forced : No Text #2 ID : 5 Format : UTF-8 Codec ID : S_TEXT/UTF8 Codec ID/Info : UTF-8 Plain Text Duration : 1 h 2 min Bit rate : 0 b/s Frame rate : 0.002 FPS Count of elements : 9 Stream size : 418 Bytes (0%) Title : Forced Language : English Default : No Forced : No Text #3 ID : 6 Format : UTF-8 Codec ID : S_TEXT/UTF8 Codec ID/Info : UTF-8 Plain Text Duration : 1 h 44 min Bit rate : 54 b/s Frame rate : 0.212 FPS Count of elements : 1333 Stream size : 42.1 KiB (0%) Language : English Default : No Forced : No Text #4 ID : 7 Format : UTF-8 Codec ID : S_TEXT/UTF8 Codec ID/Info : UTF-8 Plain Text Duration : 1 h 42 min Bit rate : 90 b/s Frame rate : 0.341 FPS Count of elements : 2091 Stream size : 68.0 KiB (0%) Title : SDH Language : Korean Default : No Forced : No Menu 00:00:00.000 : en:Part 01 01:43:05.450 : en:Credits
Релиз:

Всего файлов в раздаче: 1 
Badland.Hunters.2024.MVO.DVO.WEB-DLRip.x264.seleZen.mkv2.19 GB

Похожие раздачи по запросу - Пустоши
2024-02-04 magnet Пустоши / Охотники с пустоши / Hwang-ya / Badland Hunters (2024) WEB-DLRip-AVC от ExKinoRay | P | Jaskier 744.04 MB ↑ 0 ↓ 0
2024-01-30 magnet Пустоши / Охотники с пустоши / Hwang-ya / Badland Hunters (2024) WEB-DL 1080p | Jaskier 4.59 GB ↑ 0 ↓ 0
2024-01-29 magnet Пустоши / Охотники с пустоши / Hwang-ya / Badland Hunters (2024) WEB-DLRip от MegaPeer | P | Jaskier 1.46 GB ↑ 0 ↓ 0
2024-01-28 magnet Пустоши / Охотники с пустоши / Hwang-ya / Badland Hunters [2024, боевик, фантастика, WEB-DL 1080p] от ExKinoRay (DVO ViruseProject) 4.79 GB ↑ 0 ↓ 0
2024-01-28 magnet Пустоши / Охотники с пустоши / Hwang-ya / Badland Hunters (2024) WEB-DLRip от New-Team | L | DublikTV 1.46 GB ↑ 0 ↓ 0
2024-01-28 magnet Пустоши / Hwang-ya / Badland Hunters (2024) WEB-DL 1080p | ViruseProject 4.79 GB ↑ 0 ↓ 0
2024-01-27 magnet Пустоши / Охотники с пустоши / Hwang-ya / Badland Hunters (2024) WEB-DLRip от JNS82 | Sub 1.46 GB ↑ 0 ↓ 0

Комментарии

fert123321
Слабый фильм, снятый в павилионе. Вроде постапокалипсис, а костюмы у всех как с иголочки. Да и тема заезженная, и бюджет мал для размаха. А так ГГ, как и положено, ломает с удара человеков пополам. Но это мы уже видели в других фильмах с его участием, более интересных, чем этот.


Зарегистрируйтесь чтобы добавить комментарий
Торрент клиент
byTorrent - программа для загрузки торрент-файлов.

Скачать byTorrent.exe (1,5 МБ)

Скачать byTorrent.zip (0,6 МБ)

Поддержи torrent.by
российских рублей
(300 российских рублей это 4$)

Обратная связь rss

End game ©