↑↓torrent.by
Поиск
Логин:  Регистрация
Пароль:

Проклятые воды / Night Swim (2024) WEB-DLRip-AVC от DoMiNo & селезень | P2 | ViruseProject

download Скачать торрент-файл   magnet Магнитная ссылка Размер: 1.45 GB Добавлен: 2024-01-28 05:00
Пиры будут получены из сети DHT
Последний сидер был замечен сегодня в 17:02
Информация о фильме Название: Проклятые воды Оригинальное название: Night Swim Год выпуска: 2024 Жанр: ужасы Режиссер: Брайс Макгуайр / Bryce McGuire В ролях: Уайатт Рассел, Керри Кондон, Amélie Hoeferle, Гэвин Уоррен, Джоди Лонг, Эдди Мартинес, Элайджа Дж. Робертс, Ранума Пантаки, Бен Синклер, Элли Араиса О фильме: Бывший профессиональный бейсболист Рэй, страдающий от рассеянного склероза, вместе с женой и двумя детьми переезжает в новый дом с бассейном. Супруги решают, что плавание будет полезно и детям, и Рэю в качестве терапии. И впрямь, здоровье мужчины невероятным образом улучшается, вот только без следа исчезает кот семейства, и в бассейне активизируется нечто потустороннее. Выпущено: США / Atomic Monster, Blumhouse Productions, Government of New South Wales, Australia Продолжительность: 01:38:21 Перевод: Профессиональный (двухголосый, закадровый) | ViruseProject Субтитры: Английские Файл Формат: Matroska Качество: WEB-DLRip-AVC Видео: 1024x426 at 23.976 fps, x264@L4.1, ~1912 kbps Аудио: AC3, 2 ch, ~192 kbps - | Русский | Формат субтитров: softsub (SRT) ***Рип от: -=DoMiNo=-
[+] M/IGeneral Unique ID : 18648153209378865857935839371056311657 (0xE0780F057DCB81E29E9A7FD1906ED69) Complete name : I:Night.Swim.2024.AMZN.WEB-DLRip.x264.seleZen.mkv Format : Matroska Format version : Version 4 File size : 1.45 GiB Duration : 1 h 38 min Overall bit rate : 2 105 kb/s Frame rate : 23.976 FPS Movie name : Night.Swim.2024.AMZN.WEB-DLRip.x264.seleZen Encoded date : 2024-01-27 17:20:07 UTC Writing application : mkvmerge v82.0 ('I'm The President') 64-bit Writing library : libebml v1.4.5 + libmatroska v1.7.1 Cover : Yes Attachments : cover.jpg / small_cover.jpg Video ID : 1 Format : AVC Format/Info : Advanced Video Codec Format profile : High@L4.1 Format settings : CABAC / 14 Ref Frames Format settings, CABAC : Yes Format settings, Reference : 14 frames Codec ID : V_MPEG4/ISO/AVC Duration : 1 h 38 min Bit rate : 1 912 kb/s Width : 1 024 pixels Height : 426 pixels Display aspect ratio : 2.40:1 Frame rate mode : Constant Frame rate : 23.976 (24000/1001) FPS Color space : YUV Chroma subsampling : 4:2:0 Bit depth : 8 bits Scan type : Progressive Bits/(Pixel*Frame) : 0.183 Stream size : 1.31 GiB (91%) Title : -=DoMiNo=- Writing library : x264 core 164 r3173 -DoMiNo Encoding settings : cabac=1 / ref=14 / deblock=1:-2:-1 / analyse=0x3:0x133 / me=umh / subme=10 / psy=1 / psy_rd=1.00:0.15 / mixed_ref=1 / me_range=32 / chroma_me=1 / trellis=2 / 8x8dct=1 / cqm=0 / deadzone=21,11 / fast_pskip=0 / chroma_qp_offset=-3 / threads=17 / lookahead_threads=3 / sliced_threads=0 / nr=0 / decimate=0 / interlaced=0 / bluray_compat=0 / constrained_intra=0 / bframes=10 / b_pyramid=2 / b_adapt=2 / b_bias=0 / direct=1 / weightb=1 / open_gop=0 / weightp=2 / keyint=250 / keyint_min=23 / scenecut=40 / intra_refresh=0 / rc_lookahead=60 / rc=crf / mbtree=0 / crf=18.0 / qcomp=0.60 / qpmin=0 / qpmax=69 / qpstep=4 / vbv_maxrate=50000 / vbv_bufsize=62500 / crf_max=0.0 / nal_hrd=none / filler=0 / ip_ratio=1.40 / pb_ratio=1.30 / aq=1:0.90 Language : English Default : Yes Forced : No Color range : Limited Color primaries : BT.709 Transfer characteristics : BT.709 Matrix coefficients : BT.709 Audio ID : 2 Format : AC-3 Format/Info : Audio Coding 3 Commercial name : Dolby Digital Codec ID : A_AC3 Duration : 1 h 38 min Bit rate mode : Constant Bit rate : 192 kb/s Channel(s) : 2 channels Channel layout : L R Sampling rate : 48.0 kHz Frame rate : 31.250 FPS (1536 SPF) Compression mode : Lossy Stream size : 135 MiB (9%) Title : DVO - ViruseProject Language : Russian Service kind : Complete Main Default : Yes Forced : No Text #1 ID : 3 Format : UTF-8 Codec ID : S_TEXT/UTF8 Codec ID/Info : UTF-8 Plain Text Duration : 1 h 29 min Bit rate : 51 b/s Frame rate : 0.223 FPS Count of elements : 1191 Stream size : 33.6 KiB (0%) Title : Full Language : English (US) Default : No Forced : No Text #2 ID : 4 Format : UTF-8 Codec ID : S_TEXT/UTF8 Codec ID/Info : UTF-8 Plain Text Duration : 1 h 30 min Bit rate : 58 b/s Frame rate : 0.245 FPS Count of elements : 1338 Stream size : 39.1 KiB (0%) Title : SDH Language : English (US) Default : No Forced : No Menu 00:00:00.000 : en:Chapter 01 00:05:59.609 : en:Chapter 02 00:11:54.923 : en:Chapter 03 00:15:48.365 : en:Chapter 04 00:20:34.401 : en:Chapter 05 00:25:23.523 : en:Chapter 06 00:28:42.847 : en:Chapter 07 00:31:47.699 : en:Chapter 08 00:37:04.933 : en:Chapter 09 00:42:48.860 : en:Chapter 10 00:48:10.598 : en:Chapter 11 00:53:50.647 : en:Chapter 12 00:58:20.917 : en:Chapter 13 01:01:29.773 : en:Chapter 14 01:04:43.341 : en:Chapter 15 01:12:37.732 : en:Chapter 16 01:17:06.251 : en:Chapter 17 01:22:43.213 : en:Chapter 18 01:27:17.946 : en:Chapter 19 01:29:25.198 : en:Chapter 20
Релиз: Присоединяйся к: Кликай на баннеры.

Всего файлов в раздаче: 1 
Night.Swim.2024.AMZN.WEB-DLRip.x264.seleZen.mkv1.45 GB

Похожие раздачи по запросу - Проклятые
2024-02-12 magnet Проклятые предания 4: Прежде, чем пробьют часы / Cursed Fables 4: Before the Clock Strikes CE (2024) PC 815.35 MB ↑ 0 ↓ 0
2024-01-28 magnet Проклятые воды / Night Swim [2024, WEB-DLRip-AVC] DVO (ViruseProject) 1.71 GB ↑ 0 ↓ 0
2024-01-28 magnet Проклятые воды / Night Swim (2024) WEB-DL 1080p от New-Team | P2 | ViruseProject 5.02 GB ↑ 0 ↓ 0

Комментарии

darkvud3310
локализаторы совсем уже тю тю?Может фильм называется Ночное Купание или Ночное плавание?


Зарегистрируйтесь чтобы добавить комментарий
Торрент клиент
byTorrent - программа для загрузки торрент-файлов.

Скачать byTorrent.exe (1,5 МБ)

Скачать byTorrent.zip (0,6 МБ)

Поддержи torrent.by
российских рублей
(300 российских рублей это 4$)

Обратная связь rss

End game ©