↑↓torrent.by
Поиск
Логин:  Регистрация
Пароль:

Проклятые воды / Night Swim (2024) WEB-DL 1080p от New-Team | P2 | ViruseProject

download Скачать торрент-файл   magnet Магнитная ссылка Размер: 5.02 GB Добавлен: 2024-01-28 05:00
Пиры будут получены из сети DHT
Последний сидер был замечен вчера в 12:30
Проклятые воды / Night Swim Год выпуска: 2024 Выпущено: США / Atomic Monster, Blumhouse Productions, Government of New South Wales, Australia Жанр: ужасы Режиссер: Брайс Макгуайр / Bryce McGuire В ролях: Уайатт Рассел, Керри Кондон, Amélie Hoeferle, Гэвин Уоррен, Джоди Лонг, Эдди Мартинес, Элайджа Дж. Робертс, Ранума Пантаки, Бен Синклер, Элли Араиса О фильме: Бывший профессиональный бейсболист Рэй, страдающий от рассеянного склероза, вместе с женой и двумя детьми переезжает в новый дом с бассейном. Супруги решают, что плавание будет полезно и детям, и Рэю в качестве терапии. И впрямь, здоровье мужчины невероятным образом улучшается, вот только без следа исчезает кот семейства, и в бассейне активизируется нечто потустороннее. Продолжительность: 01:38:21 Перевод: Профессиональный (двухголосый, закадровый) | ViruseProject Субтитры: Английские Раздача от: Автор релиза: JNS82. Формат: MKV Качество: WEB-DL 1080p | AMZN Видео: MPEG-4 AVC, 6352 Кбит/с, 1920x800 Аудио #1: AC3, 2 ch, 192 Кбит/с | RUS | Аудио #2: E-AC3 JOC, 6 ch, 768 Кбит/с | ENG |
[+] MediaInfoОбщее Уникальный идентификатор : 185244450257741298620166946360920021402 (0x8B5CC88B7AD7500FACB2B717A49E999A) Полное имя : D:TorrentsNight.Swim.2024.1080p.AMZN_от New-Team.mkv Формат : Matroska Версия формата : Version 4 Размер файла : 5,02 Гбайт Продолжительность : 1 ч. 38 м. Общий поток : 7 313 Кбит/сек Название фильма : Night.Swim.2024.1080p.AMZN_от New-Team Дата кодирования : UTC 2024-01-27 15:35:48 Программа кодирования : mkvmerge v79.0 ('Funeral Pyres') 64-bit Библиотека кодирования : libebml v1.4.4 + libmatroska v1.7.1 Видео Идентификатор : 1 Формат : AVC Формат/Информация : Advanced Video Codec Профиль формата : High@L4 Настройки формата : CABAC / 4 Ref Frames Параметр CABAC формата : Да Параметр RefFrames формата : 4 кадра Идентификатор кодека : V_MPEG4/ISO/AVC Продолжительность : 1 ч. 38 м. Вид битрейта : Постоянный Битрейт : 6 352 Кбит/сек Номинальный битрейт : 10 000 Кбит/сек Ширина : 1 920 пикселей Высота : 800 пикселей Соотношение сторон : 2,40:1 Режим частоты кадров : Постоянный Частота кадров : 23,976 (24000/1001) кадра/сек Цветовое пространство : YUV Субдискретизация насыщенности : 4:2:0 Битовая глубина : 8 бит Тип развёртки : Прогрессивная Бит/(Пиксели*Кадры) : 0.172 Размер потока : 4,36 Гбайт (87%) Язык : English Default : Да Forced : Нет Цветовой диапазон : Limited Основные цвета : BT.709 Характеристики трансфера : BT.709 Коэффициенты матрицы : BT.709 Аудио #1 Идентификатор : 2 Формат : AC-3 Формат/Информация : Audio Coding 3 Коммерческое название : Dolby Digital Идентификатор кодека : A_AC3 Продолжительность : 1 ч. 38 м. Вид битрейта : Постоянный Битрейт : 192 Кбит/сек Каналы : 2 канала Channel layout : L R Частота : 48,0 КГц Частота кадров : 31,250 кадров/сек (1536 SPF) Метод сжатия : С потерями Размер потока : 135 Мбайт (3%) Заголовок : DVO - ViruseProject Язык : Russian Service kind : Complete Main Default : Да Forced : Нет Аудио #2 Идентификатор : 3 Формат : E-AC-3 JOC Формат/Информация : Enhanced AC-3 with Joint Object Coding Коммерческое название : Dolby Digital Plus with Dolby Atmos Идентификатор кодека : A_EAC3 Продолжительность : 1 ч. 38 м. Вид битрейта : Постоянный Битрейт : 768 Кбит/сек Каналы : 6 каналов Channel layout : L R C LFE Ls Rs Частота : 48,0 КГц Частота кадров : 31,250 кадров/сек (1536 SPF) Метод сжатия : С потерями Задержка видео : 2 мс. Размер потока : 540 Мбайт (10%) Заголовок : Original Язык : English Service kind : Complete Main Default : Нет Forced : Нет Complexity index : 16 Number of dynamic objects : 15 Bed channel count : 1 канал Bed channel configuration : LFE Текст #1 Идентификатор : 4 Формат : UTF-8 Идентификатор кодека : S_TEXT/UTF8 Идентификатор кодека/Информация : UTF-8 Plain Text Продолжительность : 1 ч. 29 м. Битрейт : 51 бит/сек Count of elements : 1191 Размер потока : 33,6 Кбайт (0%) Заголовок : Язык : English Default : Нет Forced : Нет Текст #2 Идентификатор : 5 Формат : UTF-8 Идентификатор кодека : S_TEXT/UTF8 Идентификатор кодека/Информация : UTF-8 Plain Text Продолжительность : 1 ч. 30 м. Битрейт : 58 бит/сек Count of elements : 1338 Размер потока : 39,1 Кбайт (0%) Заголовок : SDH Язык : English Default : Нет Forced : Нет Меню 00:00:00.000 : en:Chapter 01 00:05:59.609 : en:Chapter 02 00:11:54.923 : en:Chapter 03 00:15:48.365 : en:Chapter 04 00:20:34.401 : en:Chapter 05 00:25:23.523 : en:Chapter 06 00:28:42.847 : en:Chapter 07 00:31:47.699 : en:Chapter 08 00:37:04.933 : en:Chapter 09 00:42:48.860 : en:Chapter 10 00:48:10.598 : en:Chapter 11 00:53:50.647 : en:Chapter 12 00:58:20.917 : en:Chapter 13 01:01:29.773 : en:Chapter 14 01:04:43.341 : en:Chapter 15 01:12:37.732 : en:Chapter 16 01:17:06.251 : en:Chapter 17 01:22:43.213 : en:Chapter 18 01:27:17.946 : en:Chapter 19 01:29:25.198 : en:Chapter 20

Всего файлов в раздаче: 1 
Night.Swim.2024.1080p.AMZN_от New-Team.mkv5.02 GB

Похожие раздачи по запросу - Проклятые
2024-02-12 magnet Проклятые предания 4: Прежде, чем пробьют часы / Cursed Fables 4: Before the Clock Strikes CE (2024) PC 815.35 MB ↑ 0 ↓ 0
2024-01-28 magnet Проклятые воды / Night Swim [2024, WEB-DLRip-AVC] DVO (ViruseProject) 1.71 GB ↑ 0 ↓ 0
2024-01-28 magnet Проклятые воды / Night Swim (2024) WEB-DLRip-AVC от DoMiNo & селезень | P2 | ViruseProject 1К1.45 GB ↑ 0 ↓ 0

Комментарии


Зарегистрируйтесь чтобы добавить комментарий
Торрент клиент
byTorrent - программа для загрузки торрент-файлов.

Скачать byTorrent.exe (1,5 МБ)

Скачать byTorrent.zip (0,6 МБ)

Поддержи torrent.by
российских рублей
(300 российских рублей это 4$)

Обратная связь rss

End game ©