↑↓torrent.by
Поиск
Логин:  Регистрация
Пароль:

Пустоши / Охотники с пустоши / Hwang-ya / Badland Hunters [2024, боевик, фантастика, WEB-DL 1080p] от ExKinoRay (DVO ViruseProject)

download Скачать торрент-файл   magnet Магнитная ссылка Размер: 4.79 GB Добавлен: il68k 2024-01-28 13:30
Пиры будут получены из сети DHT
Последний сидер был замечен 2024-02-25 19:59
Пустоши / Охотники с пустоши / Hwang-ya / Badland Hunters

Страна: Корея Южная Жанр: боевик, фантастика Год выпуска: 2024 Продолжительность: 01:48:47 Перевод: Профессиональный (двухголосый закадровый) ViruseProject Субтитры: русские, английские (SRT) Оригинальная аудиодорожка: корейский
Режиссер: Хо-Мён хэ В ролях: Ма Дон-сок, Ли Хи-джун, Ли Джун-ён, Но Джон-и, Ан Джи-хе, Ким Ён-сон Описание: Спустя годы после того, как мощное землетрясение уничтожило Сеул, остатки некогда крупного города превратились в апокалиптическую пустошь, где царит беззаконие и принцип грубой силы. Нам Сан — опытный охотник, привыкший выживать в этом новом мире и быть жестоким, если того требуют обстоятельства. Когда знакомого ему подростка похищает безумный врач, который ставит ужасные эксперименты на людях, Нам Сан решает взять все в свои руки и отправляется на спасение.

Качество: WEB-DL 1080p Контейнер: MKV Видео: AVC, 1920x1080 (16:9), 23.976 fps, 5000 kbps Аудио#1: 48 kHz, AC3, 5.1, 640 kbps - ViruseProject Аудио#2: 48 kHz, E-AC3, 5.1, 768 kbps - Оригинал
[+] MediaInfo
Общее
Уникальный идентификатор : 216779672395142582249510728791123813728 (0xA3163F09961AB487C1B38B566183E560)
Полное имя : Badland.Hunters.2024.1080p.NF.WEB-DL.ExKinoRay.mkv
Формат : Matroska
Версия формата : Version 4
Размер файла : 4,79 Гбайт
Продолжительность : 1 ч. 48 м.
Режим общего битрейта : Переменный
Общий поток : 6 299 Кбит/сек
Дата кодирования : UTC 2024-01-27 20:17:18
Программа кодирования : mkvmerge v74.0.0 ('You Oughta Know') 64-bit
Библиотека кодирования : libebml v1.4.4 + libmatroska v1.7.1

Видео
Идентификатор : 1
Формат : AVC
Формат/Информация : Advanced Video Codec
Профиль формата : Main@L4
Настройки формата : CABAC / 3 Ref Frames
Параметр CABAC формата : Да
Параметр RefFrames формата : 3 кадра
Идентификатор кодека : V_MPEG4/ISO/AVC
Продолжительность : 1 ч. 48 м.
Вид битрейта : Переменный
Битрейт : 5 000 Кбит/сек
Максимальный битрейт : 7 500 Кбит/сек
Ширина : 1 920 пикселей
Высота : 1 080 пикселей
Соотношение сторон : 16:9
Режим частоты кадров : Постоянный
Частота кадров : 23,976 (24000/1001) кадра/сек
Цветовое пространство : YUV
Субдискретизация насыщенности : 4:2:0
Битовая глубина : 8 бит
Тип развёртки : Прогрессивная
Бит/(Пиксели*Кадры) : 0.101
Размер потока : 3,71 Гбайт (78%)
Библиотека кодирования : x264 core 148 r2727 7d026e8
Настройки программы : cabac=1 / ref=3 / deblock=1:0:0 / analyse=0x1:0x111 / me=umh / subme=10 / psy=1 / psy_rd=1.00:0.00 / mixed_ref=1 / me_range=24 / chroma_me=1 / trellis=2 / 8x8dct=0 / cqm=0 / deadzone=21,11 / fast_pskip=1 / chroma_qp_offset=-2 / threads=6 / lookahead_threads=1 / sliced_threads=0 / nr=0 / decimate=1 / interlaced=0 / bluray_compat=0 / stitchable=1 / constrained_intra=0 / bframes=2 / b_pyramid=0 / b_adapt=2 / b_bias=0 / direct=3 / weightb=1 / open_gop=0 / weightp=2 / keyint=240 / keyint_min=121 / scenecut=0 / intra_refresh=0 / rc_lookahead=48 / rc=2pass / mbtree=1 / bitrate=5000 / ratetol=1.0 / qcomp=0.50 / qpmin=6 / qpmax=51 / qpstep=4 / cplxblur=20.0 / qblur=0.5 / vbv_maxrate=7500 / vbv_bufsize=10000 / nal_hrd=vbr / filler=0 / ip_ratio=1.40 / aq=1:1.00
Язык : English
Default : Да
Forced : Нет

Аудио #1
Идентификатор : 2
Формат : AC-3
Формат/Информация : Audio Coding 3
Коммерческое название : Dolby Digital
Идентификатор кодека : A_AC3
Продолжительность : 1 ч. 48 м.
Вид битрейта : Постоянный
Битрейт : 640 Кбит/сек
Каналы : 6 каналов
Channel layout : L R C LFE Ls Rs
Частота : 48,0 КГц
Частота кадров : 31,250 кадров/сек (1536 SPF)
Метод сжатия : С потерями
Размер потока : 498 Мбайт (10%)
Заголовок : ViruseProject
Язык : Russian
Service kind : Complete Main
Default : Нет
Forced : Нет

Аудио #2
Идентификатор : 3
Формат : E-AC-3 JOC
Формат/Информация : Enhanced AC-3 with Joint Object Coding
Коммерческое название : Dolby Digital Plus with Dolby Atmos
Идентификатор кодека : A_EAC3
Продолжительность : 1 ч. 48 м.
Вид битрейта : Постоянный
Битрейт : 768 Кбит/сек
Каналы : 6 каналов
Channel layout : L R C LFE Ls Rs
Частота : 48,0 КГц
Частота кадров : 31,250 кадров/сек (1536 SPF)
Метод сжатия : С потерями
Размер потока : 597 Мбайт (12%)
Заголовок : Original
Язык : Korean
Service kind : Complete Main
Default : Нет
Forced : Нет
Complexity index : 16
Number of dynamic objects : 15
Bed channel count : 1 канал
Bed channel configuration : LFE

Текст #1
Идентификатор : 4
Формат : UTF-8
Идентификатор кодека : S_TEXT/UTF8
Идентификатор кодека/Информация : UTF-8 Plain Text
Продолжительность : 1 ч. 44 м.
Битрейт : 72 бит/сек
Count of elements : 1191
Размер потока : 55,4 Кбайт (0%)
Заголовок : Full
Язык : Russian
Default : Нет
Forced : Нет

Текст #2
Идентификатор : 5
Формат : UTF-8
Идентификатор кодека : S_TEXT/UTF8
Идентификатор кодека/Информация : UTF-8 Plain Text
Продолжительность : 1 ч. 2 м.
Битрейт : 0 бит/сек
Count of elements : 9
Размер потока : 418 байт (0%)
Заголовок : Forced
Язык : English
Default : Нет
Forced : Нет

Текст #3
Идентификатор : 6
Формат : UTF-8
Идентификатор кодека : S_TEXT/UTF8
Идентификатор кодека/Информация : UTF-8 Plain Text
Продолжительность : 1 ч. 44 м.
Битрейт : 54 бит/сек
Count of elements : 1333
Размер потока : 42,1 Кбайт (0%)
Заголовок : Full
Язык : English
Default : Нет
Forced : Нет

Текст #4
Идентификатор : 7
Формат : UTF-8
Идентификатор кодека : S_TEXT/UTF8
Идентификатор кодека/Информация : UTF-8 Plain Text
Продолжительность : 1 ч. 45 м.
Битрейт : 65 бит/сек
Count of elements : 1695
Размер потока : 50,8 Кбайт (0%)
Заголовок : SDH
Язык : English
Default : Нет
Forced : Нет

Меню
00:00:00.000 : en:Part 01
01:43:05.450 : en:Credits
[+] Скриншоты

Всего файлов в раздаче: 1 
Badland.Hunters.2024.1080p.NF.WEB-DL.ExKinoRay.mkv4.79 GB

Похожие раздачи по запросу - Пустоши
2024-02-04 magnet Пустоши / Охотники с пустоши / Hwang-ya / Badland Hunters (2024) WEB-DLRip-AVC от ExKinoRay | P | Jaskier 744.04 MB ↑ 0 ↓ 0
2024-01-30 magnet Пустоши / Охотники с пустоши / Hwang-ya / Badland Hunters (2024) WEB-DL 1080p | Jaskier 4.59 GB ↑ 0 ↓ 0
2024-01-29 magnet Пустоши / Охотники с пустоши / Hwang-ya / Badland Hunters (2024) WEB-DLRip-AVC от DoMiNo & селезень | P, P2 | Jaskier, ViruseProject 1К2.19 GB ↑ 0 ↓ 0
2024-01-29 magnet Пустоши / Охотники с пустоши / Hwang-ya / Badland Hunters (2024) WEB-DLRip от MegaPeer | P | Jaskier 1.46 GB ↑ 0 ↓ 0
2024-01-28 magnet Пустоши / Охотники с пустоши / Hwang-ya / Badland Hunters (2024) WEB-DLRip от New-Team | L | DublikTV 1.46 GB ↑ 0 ↓ 0
2024-01-28 magnet Пустоши / Охотники с пустоши / Hwang-ya / Badland Hunters (2024) WEB-DL 1080p от New-Team | L | DublikTV 5.27 GB ↑ 0 ↓ 0
2024-01-28 magnet Пустоши / Hwang-ya / Badland Hunters (2024) WEB-DL 1080p | ViruseProject 4.79 GB ↑ 0 ↓ 0

Комментарии


Зарегистрируйтесь чтобы добавить комментарий
Торрент клиент
byTorrent - программа для загрузки торрент-файлов.

Скачать byTorrent.exe (1,5 МБ)

Скачать byTorrent.zip (0,6 МБ)

Поддержи torrent.by
российских рублей
(300 российских рублей это 4$)

Обратная связь rss

End game ©