↑↓torrent.by
Поиск
Логин:  Регистрация
Пароль:

Городская полиция / Метро / Metro (1997) WEB-DLRip 720p от DoMiNo & селезень | D, Р, A

download Скачать торрент-файл   magnet Магнитная ссылка Размер: 4.85 GB Добавлен: 2024-01-28 17:00
Пиры будут получены из сети DHT
Последний сидер был замечен 2024-01-29 16:28
Информация о фильме Название: Городская полиция Оригинальное название: Metro Год выхода: 1997 Жанр: боевик, триллер, драма, комедия, криминал Режиссер: Томас Картер В ролях: Эдди Мёрфи, Ким Мийори, Арт Эванс, Джеймс Карпентер, Майкл Рапапорт, Донал Лог, Джени Чуа, Дик Брайт, Дэвид Майкл Силверман, Денис Арндт О фильме: Хитрый и бесстрашный полицейский из отдела по борьбе с терроризмом Скотт Роупер - настоящий профессионал по переговорам с преступниками, и это нередко приносит ему удачу. Вместе со своим напарником, выпускником Гарварда, он предотвратил множество преступлений. Однако когда подружку Скотта захватывает преступник - психопат, помешанный на мщении, даже его опыт не поможет в отчаянной ситуации. Скотту приходится столкнуться один на один с убийцей, и, кажется, не существует верного решения! Страна: США Продолжительность: 01:57:38 Перевод 1: Профессиональный (дублированный) Нева 1 Перевод 2: Профессиональный (многоголосый закадровый) ОРТ Перевод 3: Авторский (одноголосый закадровый) Живов Перевод 4: Авторский (одноголосый закадровый) Визгунов Субтитры: Русские, английские Файл Формат: Matroska Качество: WEB-DLRip 720p Видео: 1280x544 at 23.976 fps, x264@L4.1, ~4606 kbps Аудио 1: Russian: 48 kHz, AC3, 2/0ch, ~192.00 kbps avg |DUB| Аудио 2: Russian: 48 kHz, AC3, 2/0 (L,R) ch, ~192.00 kbps avg |MVO, Первый канал| Аудио 3: Russian: 48 kHz, AC3, 3/2 (L,C,R,l,r) + LFE ch, ~384.00 kbps avg |AVO, Ю.Живов| Аудио 4: Russian: 48 kHz, AC3, 2/0 (L,R) ch ~192 kbps avg |AVO, Визгунов| Аудио 5: English: 48 kHz, AC3, 3/2 (L,C,R,l,r) + LFE ch, ~384.00 kbps avg ***Рип от: -=DoMiNo=-
[+] M/Ix264 : frame I:1200 Avg QP:18.30 size: 76967 x264 : frame P:40727 Avg QP:19.59 size: 40418 x264 : frame B:127313 Avg QP:20.84 size: 18263 x264 : consecutive B-frames: 2.9% 4.6% 9.5% 27.6% 17.5% 29.8% 4.5% 2.1% 0.8% 0.6% 0.2% General Unique ID : 122197556791070606954254684991685808980 (0x5BEE64B441892BE79AECE0C932765354) Complete name : D:Metro.1997.WEB-DLRip.720p.x264.seleZen.mkv Format : Matroska Format version : Version 4 File size : 4.85 GiB Duration : 1 h 57 min Overall bit rate : 5 892 kb/s Movie name : Metro.1997.WEB-DLRip.720p.x264.seleZen Encoded date : UTC 2022-06-05 21:12:57 Writing application : mkvmerge v63.0.0 ('Everything') 64-bit Writing library : libebml v1.4.2 + libmatroska v1.6.4 Cover : Yes Attachments : cover.jpg / small_cover.jpg Video ID : 1 Format : AVC Format/Info : Advanced Video Codec Format profile : High@L4.1 Format settings : CABAC / 12 Ref Frames Format settings, CABAC : Yes Format settings, Reference : 12 frames Codec ID : V_MPEG4/ISO/AVC Duration : 1 h 57 min Bit rate : 4 606 kb/s Width : 1 280 pixels Height : 544 pixels Display aspect ratio : 2.35:1 Frame rate mode : Constant Frame rate : 23.976 (24000/1001) FPS Color space : YUV Chroma subsampling : 4:2:0 Bit depth : 8 bits Scan type : Progressive Bits/(Pixel*Frame) : 0.276 Stream size : 3.78 GiB (78%) Title : -=DoMiNo=- Writing library : x264 core 164 r3095 baee400 Encoding settings : cabac=1 / ref=12 / deblock=1:-1:-1 / analyse=0x3:0x133 / me=umh / subme=10 / psy=1 / psy_rd=1.05:0.15 / mixed_ref=1 / me_range=32 / chroma_me=1 / trellis=2 / 8x8dct=1 / cqm=0 / deadzone=21,11 / fast_pskip=0 / chroma_qp_offset=-3 / threads=17 / lookahead_threads=4 / sliced_threads=0 / nr=0 / decimate=0 / interlaced=0 / bluray_compat=0 / constrained_intra=0 / bframes=10 / b_pyramid=2 / b_adapt=2 / b_bias=0 / direct=3 / weightb=1 / open_gop=0 / weightp=2 / keyint=250 / keyint_min=23 / scenecut=40 / intra_refresh=0 / rc_lookahead=60 / rc=crf / mbtree=0 / crf=20.0 / qcomp=0.70 / qpmin=0 / qpmax=69 / qpstep=4 / vbv_maxrate=50000 / vbv_bufsize=62500 / crf_max=0.0 / nal_hrd=none / filler=0 / ip_ratio=1.35 / pb_ratio=1.25 / aq=1:0.90 Language : English Default : Yes Forced : No Color range : Limited Color primaries : BT.709 Transfer characteristics : BT.709 Matrix coefficients : BT.709 Audio #1 ID : 2 Format : AC-3 Format/Info : Audio Coding 3 Commercial name : Dolby Digital Codec ID : A_AC3 Duration : 1 h 57 min Bit rate mode : Constant Bit rate : 192 kb/s Channel(s) : 2 channels Channel layout : L R Sampling rate : 48.0 kHz Frame rate : 31.250 FPS (1536 SPF) Compression mode : Lossy Delay relative to video : 11 s 300 ms Stream size : 155 MiB (3%) Title : Dub-Нева 1 Language : Russian Service kind : Complete Main Default : Yes Forced : No Audio #2 ID : 3 Format : AC-3 Format/Info : Audio Coding 3 Commercial name : Dolby Digital Codec ID : A_AC3 Duration : 1 h 57 min Bit rate mode : Constant Bit rate : 192 kb/s Channel(s) : 2 channels Channel layout : L R Sampling rate : 48.0 kHz Frame rate : 31.250 FPS (1536 SPF) Compression mode : Lossy Delay relative to video : 11 s 300 ms Stream size : 155 MiB (3%) Title : MVO-Первый канал Language : Russian Service kind : Complete Main Default : No Forced : No Audio #3 ID : 4 Format : AC-3 Format/Info : Audio Coding 3 Commercial name : Dolby Digital Codec ID : A_AC3 Duration : 1 h 57 min Bit rate mode : Constant Bit rate : 384 kb/s Channel(s) : 6 channels Channel layout : L R C LFE Ls Rs Sampling rate : 48.0 kHz Frame rate : 31.250 FPS (1536 SPF) Compression mode : Lossy Delay relative to video : 11 s 300 ms Stream size : 310 MiB (6%) Title : AVO-Живов Language : Russian Service kind : Complete Main Default : No Forced : No Audio #4 ID : 5 Format : AC-3 Format/Info : Audio Coding 3 Commercial name : Dolby Digital Codec ID : A_AC3 Duration : 1 h 57 min Bit rate mode : Constant Bit rate : 192 kb/s Channel(s) : 2 channels Channel layout : L R Sampling rate : 48.0 kHz Frame rate : 31.250 FPS (1536 SPF) Compression mode : Lossy Delay relative to video : 11 s 300 ms Stream size : 155 MiB (3%) Title : AVO-Визгунов Language : Russian Service kind : Complete Main Default : No Forced : No Audio #5 ID : 6 Format : AC-3 Format/Info : Audio Coding 3 Commercial name : Dolby Digital Codec ID : A_AC3 Duration : 1 h 57 min Bit rate mode : Constant Bit rate : 384 kb/s Channel(s) : 6 channels Channel layout : L R C LFE Ls Rs Sampling rate : 48.0 kHz Frame rate : 31.250 FPS (1536 SPF) Compression mode : Lossy Delay relative to video : 11 s 300 ms Stream size : 310 MiB (6%) Language : English Service kind : Complete Main Default : No Forced : No Text #1 ID : 7 Format : UTF-8 Codec ID : S_TEXT/UTF8 Codec ID/Info : UTF-8 Plain Text Duration : 1 h 52 min Bit rate : 89 b/s Count of elements : 1321 Stream size : 74.2 KiB (0%) Language : Russian Default : No Forced : No Text #2 ID : 8 Format : UTF-8 Codec ID : S_TEXT/UTF8 Codec ID/Info : UTF-8 Plain Text Duration : 1 h 55 min Bit rate : 68 b/s Count of elements : 1327 Stream size : 57.8 KiB (0%) Language : English Default : No Forced : No Text #3 ID : 9 Format : UTF-8 Codec ID : S_TEXT/UTF8 Codec ID/Info : UTF-8 Plain Text Duration : 1 h 55 min Bit rate : 73 b/s Count of elements : 1480 Stream size : 62.5 KiB (0%) Title : SDH Language : English Default : No Forced : No Menu 00:00:00.000 : en:Studio logos 00:00:28.000 : en:Scott gets called to hostage situation while listening to race 00:04:09.000 : en:Scott insists on going into bank to negotiate, convenience store 00:05:14.000 : en:Scott tries to negotiate with bank robber holding hostage, bank 00:08:51.000 : en:Scott negotiates to evacuate wounded guard & deals with Earl, bank 00:11:58.000 : en:Scott avoids press & sees ex-girlfriend, bank exterior & street 00:14:15.000 : en:Scott is assigned new partner & tests him, police department 00:18:21.000 : en:Scott gets new car & drops Sam off to meet contact, garage & street 00:21:08.000 : en:Sam asks Korda about stolen jewelry & encounters trouble, Korda's apartment & elevator 00:24:23.000 : en:Scott finds Sam's body & wants to pursue killer, apartment building & police station 00:27:35.000 : en:Scott tries to seek consolation from reluctant Ronnie, Ronnie's apartment 00:32:33.000 : en:Korda blames Clarence for problem with police, pier warehouse 00:35:26.000 : en:Scott is warned off case & teaches Kevin art of negotiation, police department 00:38:46.000 : en:Scott uses psychological profiling on horses, racetrack 00:41:57.000 : en:Scott & Kevin are called to hostage situation, jewelry store 00:44:57.000 : en:Scott hears masked man's demands, jewelry store entrance 00:47:54.000 : en:Scott & Kevin plan strategy 00:50:46.000 : en:Korda outsmarts police & takes off in car, jewelry store exterior & SF streets 00:55:01.000 : en:Korda takes over cable car 00:57:18.000 : en:Scott boards cable car & fights with Korda, cable car 01:01:17.000 : en:Scott & Kevin chase Korda, stairwell & parking garage 01:04:50.000 : en:Korda dares Scott to kill him, parking garage 01:06:31.000 : en:Ronnie congratulates Scott 01:08:54.000 : en:Scott tries to reconcile with Ronnie over dinner, Ronnie's apartment 01:12:50.000 : en:Kevin rehearses hostage situation with Scott supervising, police set of store 01:14:38.000 : en:Michael gives Clarence order, prison visitors' booth 01:16:06.000 : en:Ronnie prepares dinner while unaware of danger 01:20:46.000 : en:Scott chases Clarence, rainy streets 01:23:33.000 : en:Scott warns Korda about getting personal, prison visitors' booth 01:25:27.000 : en:Scott springs surprise on Ronnie, fancy restaurant 01:28:55.000 : en:Korda takes advantage of job at laundry room, prison laundry room 01:30:35.000 : en:Scott & Ronnie look for dog, Ronnie's apartment 01:32:19.000 : en:Ronnie's trip goes wrong 01:36:02.000 : en:Scott & Kevin drive to meet Korda, abandoned shipyard 01:39:58.000 : en:Kevin tries to target Korda while Scott negotiates to save Ronnie, factory warehouse 01:43:36.000 : en:Kevin helps Scott out of tough position saving Ronnie, factory warehouse 01:47:51.000 : en:Korda steals Scott's truck 01:50:53.000 : en:Ronnie banters with Scott, Tahiti beach 01:53:28.000 : en:End credits 01:57:12.000 : en:Studio logos
[+] Скриншоты
Релиз: Присоединяйся к: Кликай на баннеры.

Всего файлов в раздаче: 1 
Metro.1997.WEB-DLRip.720p.x264.seleZen.mkv4.85 GB

Комментарии

moormariiy
Странно,что никто не написал про дефекты видеоряда, через каждые 5 секунд изображение дёргается, в течении всего фильма. Качал его ещё 15 месяцев назад и удалил, думал починили, ан нет всё также.

doodadnb
Странно - но у меня почему-то ничего не дёргается)


Зарегистрируйтесь чтобы добавить комментарий
Торрент клиент
byTorrent - программа для загрузки торрент-файлов.

Скачать byTorrent.exe (1,5 МБ)

Скачать byTorrent.zip (0,6 МБ)

Поддержи torrent.by
российских рублей
(300 российских рублей это 4$)

Обратная связь rss

End game ©