↑↓torrent.by
Поиск
Логин:  Регистрация
Пароль:

Чужой 4: Воскрешение / Alien: Resurrection (1997) Hybrid 1080p | D, P | Open Matte | Special Edition

download Скачать торрент-файл   magnet Магнитная ссылка Размер: 14.42 GB Добавлен: 2024-01-28 17:00
Пиры будут получены из сети DHT
Последний сидер был замечен 2024-02-08 20:28
"Какими бы плохими ни были сны, реальность всегда хуже." Информация о фильме Название: Чужой 4: Воскрешение Оригинальное название: Alien: Resurrection Год выхода: 1997 Жанр: ужасы, фантастика, боевик, триллер Режиссер: Жан-Пьер Жёне / Jean-Pierre Jeunet В ролях: Сигурни Уивер (Ellen Ripley), Вайнона Райдер (Annalee Call), Доминик Пинон (Vriess), Рон Перлман (Johner), Гари Дурдан (Christie), Майкл Уинкотт (Frank Elgyn), Ким Флауэрс (Sabra Hillard), Дэн Хедайя (Gen. Martin Perez), Дж. Э. Фримен (Dr. Mason Wren), Брэд Дуриф (Dr. Jonathan Gediman), Рэймонд Крус (Vincent Distephano), Лиленд Орсер (Larry Purvis) О фильме: Спустя двести лет после событий, произошедших на планете-тюрьме, группа ученых, опекаемых военным командованием, клонирует Эллен Рипли, чтобы с ее помощью заполучить детеныша инопланетного монстра. Вскоре он уже сам начинает плодиться, производя на свет новую породу - помесь кровожадного пришельца и… человека. Страна: США Студия: 20th Century Fox Продолжительность: 01:56:08 Перевод 1: Профессиональный (дублированный) CEE Перевод 2: Профессиональный (многоголосый закадровый) Позитив-Мультимедиа Перевод 3: Профессиональный (многоголосый закадровый) Двадцатый Век Фокс СНГ (со вставками Позитив-Мультимедиа) Перевод 4: Профессиональный (многоголосый закадровый) Премьер Видео Фильм (со вставками Позитив-Мультимедиа) Файл Кодек: AVC Качество: Hybrid 1080p Видео: 1920x1080, 23.976 fps, AVC, ~15.6 Mbps Звук: Аудио 1: Russian AC3 / 5.1 / 48 kHz / 448 kbps / | Дубляж | Аудио 2: Russian AC3 / 5.1 / 48 kHz / 448 kbps / | Позитив-Мультимедиа | Аудио 3: Russian AC3 / 5.1 / 48 kHz / 448 kbps / | Двадцатый Век Фокс СНГ | Аудио 4: Russian AC3 / 2.0 / 48 kHz / 192 kbps / | Премьер Видео Фильм | Аудио 5: English AC3 / 5.1 / 48 kHz / 448 kbps / | Original | Субтитры: русские/английские Сэмпл
[+] Дополнительная информация Экспериментальный релиз, только для поклонников фильма и максимального наполнения кадра. Гибрид получен путем автоматического наложения широкоэкранного BD Theatrical Cut (2.35:1) поверх WEB-DL (16:9) плагином AutoOverlay. Сцены расширенной версии взяты из BD Special Edition. Сцен с "замыленными" углами около 25 минут (в основном конец фильма). В качестве бонуса в раздачу добавлена альтернативная концовка из Театральной версии. За помощь в работе с дорожками 3 и 4 спасибо maxwell_kennedy.
[+] Скриншоты
[+] Сравнение BD Theatrical Cut.................................WEB-DL............................................Hybrid 16:9.......................................Hybrid Custom (этот релиз).............FullFrame Hybrid
[+] MediaInfoОбщее Уникальный идентификатор : 222791637627380631637693845188179124559 (0xA79C1BCEF354E153027D79D376BBE14F) Полное имя : F:ВидеоAlien.Resurrection.S.E.1997.CustomAlien Resurrection S.E. 1997 Hybrid 1080p.mkv Формат : Matroska Версия формата : Version 4 Размер файла : 14,3 Гбайт Продолжительность : 1 ч. 56 м. Общий поток : 17,6 Мбит/сек Частота кадров : 23,976 кадра/сек Дата кодирования : 2024-01-25 18:59:21 UTC Программа кодирования : mkvmerge v80.0 ('Roundabout') 64-bit Библиотека кодирования : libebml v1.4.4 + libmatroska v1.7.1 Видео Идентификатор : 1 Формат : AVC Формат/Информация : Advanced Video Codec Профиль формата : High@L4.1 Настройки формата : CABAC / 4 Ref Frames Параметр CABAC формата : Да Параметр RefFrames формата : 4 кадра Идентификатор кодека : V_MPEG4/ISO/AVC Продолжительность : 1 ч. 56 м. Битрейт : 15,6 Мбит/сек Ширина : 1 920 пикселей Высота : 1 080 пикселей Соотношение сторон : 16:9 Режим частоты кадров : Постоянный Частота кадров : 23,976 (24000/1001) кадра/сек Цветовое пространство : YUV Субдискретизация насыщенности : 4:2:0 Битовая глубина : 8 бит Тип развёртки : Прогрессивная Бит/(Пиксели*Кадры) : 0.315 Размер потока : 12,7 Гбайт (89%) Библиотека кодирования : x264 core 160 r3000 33f9e14 Настройки программы : cabac=1 / ref=4 / deblock=1:-3:-3 / analyse=0x3:0x133 / me=umh / subme=11 / psy=1 / psy_rd=1.00:0.00 / mixed_ref=1 / me_range=32 / chroma_me=1 / trellis=2 / 8x8dct=1 / cqm=0 / deadzone=21,11 / fast_pskip=0 / chroma_qp_offset=-2 / threads=6 / lookahead_threads=1 / sliced_threads=0 / nr=0 / decimate=1 / interlaced=0 / bluray_compat=0 / constrained_intra=0 / bframes=16 / b_pyramid=2 / b_adapt=2 / b_bias=0 / direct=3 / weightb=1 / open_gop=0 / weightp=2 / keyint=240 / keyint_min=23 / scenecut=40 / intra_refresh=0 / rc_lookahead=60 / rc=crf / mbtree=1 / crf=17.0 / qcomp=0.60 / qpmin=0 / qpmax=69 / qpstep=4 / vbv_maxrate=62500 / vbv_bufsize=78125 / crf_max=0.0 / nal_hrd=none / filler=0 / ip_ratio=1.40 / aq=1:1.00 Default : Да Forced : Нет Аудио #1 Идентификатор : 2 Формат : AC-3 Формат/Информация : Audio Coding 3 Коммерческое название : Dolby Digital Идентификатор кодека : A_AC3 Продолжительность : 1 ч. 56 м. Вид битрейта : Постоянный Битрейт : 448 Кбит/сек Каналы : 6 каналов Channel layout : L R C LFE Ls Rs Частота : 48,0 КГц Частота кадров : 31,250 кадров/сек (1536 SPF) Метод сжатия : С потерями Размер потока : 372 Мбайт (3%) Заголовок : DUB Язык : Russian Service kind : Complete Main Default : Да Forced : Нет Аудио #2 Идентификатор : 3 Формат : AC-3 Формат/Информация : Audio Coding 3 Коммерческое название : Dolby Digital Идентификатор кодека : A_AC3 Продолжительность : 1 ч. 56 м. Вид битрейта : Постоянный Битрейт : 448 Кбит/сек Каналы : 6 каналов Channel layout : L R C LFE Ls Rs Частота : 48,0 КГц Частота кадров : 31,250 кадров/сек (1536 SPF) Метод сжатия : С потерями Размер потока : 372 Мбайт (3%) Заголовок : MVO (Позитив-Мультимедиа) Язык : Russian Service kind : Complete Main Default : Нет Forced : Нет Аудио #3 Идентификатор : 4 Формат : AC-3 Формат/Информация : Audio Coding 3 Коммерческое название : Dolby Digital Идентификатор кодека : A_AC3 Продолжительность : 1 ч. 56 м. Вид битрейта : Постоянный Битрейт : 448 Кбит/сек Каналы : 6 каналов Channel layout : L R C LFE Ls Rs Частота : 48,0 КГц Частота кадров : 31,250 кадров/сек (1536 SPF) Метод сжатия : С потерями Размер потока : 372 Мбайт (3%) Заголовок : MVO (Двадцатый Век Фокс СНГ) Язык : Russian Service kind : Complete Main Default : Нет Forced : Нет Аудио #4 Идентификатор : 5 Формат : AC-3 Формат/Информация : Audio Coding 3 Коммерческое название : Dolby Digital Идентификатор кодека : A_AC3 Продолжительность : 1 ч. 56 м. Вид битрейта : Постоянный Битрейт : 192 Кбит/сек Каналы : 2 канала Channel layout : L R Частота : 48,0 КГц Частота кадров : 31,250 кадров/сек (1536 SPF) Метод сжатия : С потерями Размер потока : 160 Мбайт (1%) Заголовок : MVO (Премьер Видео Фильм) Язык : Russian Service kind : Complete Main Default : Нет Forced : Нет Аудио #5 Идентификатор : 6 Формат : AC-3 Формат/Информация : Audio Coding 3 Коммерческое название : Dolby Digital Идентификатор кодека : A_AC3 Продолжительность : 1 ч. 56 м. Вид битрейта : Постоянный Битрейт : 448 Кбит/сек Каналы : 6 каналов Channel layout : L R C LFE Ls Rs Частота : 48,0 КГц Частота кадров : 31,250 кадров/сек (1536 SPF) Метод сжатия : С потерями Размер потока : 372 Мбайт (3%) Заголовок : Original Язык : English Service kind : Complete Main Default : Нет Forced : Нет Текст #1 Идентификатор : 7 Формат : UTF-8 Идентификатор кодека : S_TEXT/UTF8 Идентификатор кодека/Информация : UTF-8 Plain Text Продолжительность : 1 ч. 47 м. Битрейт : 51 бит/сек Частота кадров : 0,134 кадр/сек Count of elements : 864 Размер потока : 40,6 Кбайт (0%) Заголовок : Blu-ray CEE Язык : Russian Default : Нет Forced : Нет Текст #2 Идентификатор : 8 Формат : UTF-8 Идентификатор кодека : S_TEXT/UTF8 Идентификатор кодека/Информация : UTF-8 Plain Text Продолжительность : 1 ч. 48 м. Битрейт : 53 бит/сек Частота кадров : 0,131 кадр/сек Count of elements : 851 Размер потока : 42,9 Кбайт (0%) Заголовок : Kinomania Язык : Russian Default : Нет Forced : Нет Текст #3 Идентификатор : 9 Формат : UTF-8 Идентификатор кодека : S_TEXT/UTF8 Идентификатор кодека/Информация : UTF-8 Plain Text Продолжительность : 1 ч. 55 м. Битрейт : 39 бит/сек Частота кадров : 0,167 кадр/сек Count of elements : 1158 Размер потока : 33,6 Кбайт (0%) Заголовок : SDH Язык : English Default : Нет Forced : Нет Меню 00:00:00.000 : en:Main Titles 00:03:27.332 : en:Usm Auriga 00:04:26.308 : en:Born Again 00:06:30.140 : en:Number 8 00:08:49.279 : en:An Unexpected Benefit 00:12:06.225 : en:Memories 00:15:03.528 : en:The Betty 00:19:25.539 : en:The Cargo Arrives 00:21:37.838 : en:The Deal 00:24:12.868 : en:Hosts 00:26:19.995 : en:A Little One-on-One 00:30:08.765 : en:Today's Lesson 00:32:19.563 : en:Snooping Around 00:37:16.693 : en:Caught 00:39:26.739 : en:The Escape 00:42:36.679 : en:"Evacuation." 00:46:30.663 : en:"Evacuation incomplete." 00:49:20.791 : en:Ripley Comes Through 00:53:35.379 : en:Finding a Way Out 00:57:04.963 : en:A Waste of Ammo 01:03:01.653 : en:"He's got one inside of him." 01:07:40.431 : en:A Trap 01:19:37.147 : en:Call's Secret 01:22:07.297 : en:Connecting at the Chapel 01:28:21.421 : en:Into the Nest 01:31:45.917 : en:Sharing the Monster 01:34:15.525 : en:A New Baby 01:38:58.391 : en:Racing to the Betty 01:40:45.539 : en:Closing the Hatch 01:43:49.849 : en:Under Pressure 01:47:52.299 : en:"I'm a stranger here myself." 01:49:51.418 : en:End Titles
Hybrid 16:9 · Full Frame Hybrid

Всего файлов в раздаче: 2 
Alien Resurrection S.E. 1997 [Custom Open Matte] Hybrid 1080p.mkv14.30 GB
Alt.end.Custom.mkv120.77 MB

Похожие раздачи по запросу - Чужой
2024-02-09 magnet Чужой против Хищника / AVP: Alien vs. Predator (2004) WEB-DLRip-AVC от ExKinoRay | Theatrical Cut | Open Matte | D 745.69 MB ↑ 0 ↓ 0
2024-02-06 magnet Чужой ребёнок [S01] (2023) WEBRip-AVC от Files-х 2.25 GB ↑ 0 ↓ 0
2024-02-05 magnet Чужой ребёнок [01-04 из 04] (2023) WEBRip 1080p от Files-x 6.40 GB ↑ 0 ↓ 0
2024-02-04 magnet Чужой ребёнок [01-04 из 04] (2023) WEBRip 720p от Files-x 2.51 GB ↑ 0 ↓ 0
2024-02-03 magnet Чужой ребенок / Серии: 1-4 из 4 [2023, мелодрама, WEBRip-AVC] от Aleksan55 2.30 GB ↑ 0 ↓ 0
2023-12-22 magnet Чужой / Alien (1979) D-Theater Rip-AVC от ExKinoRay | Director's Cut | D 745.90 MB ↑ 0 ↓ 0
2023-12-22 magnet Чужой / Alien (1979) UHD BDRip-HEVC 1080p | 60 fps | Director's Cut | D, P, A 17.53 GB ↑ 0 ↓ 0

Комментарии


Зарегистрируйтесь чтобы добавить комментарий
Торрент клиент
byTorrent - программа для загрузки торрент-файлов.

Скачать byTorrent.exe (1,5 МБ)

Скачать byTorrent.zip (0,6 МБ)

Поддержи torrent.by
российских рублей
(300 российских рублей это 4$)

Обратная связь rss

End game ©