↑↓torrent.by
Поиск
Логин:  Регистрация
Пароль:

Аквамен и потерянное царство / Аквамен і загублене королівство / Aquaman and the Lost Kingdom (2023) WEB-DL 1080p | D | TS | UKR

download Скачать торрент-файл   magnet Магнитная ссылка Размер: 7.68 GB Добавлен: 2024-01-28 17:00
Пиры будут получены из сети DHT
Последний сидер был замечен 2024-02-04 23:00
Информация о фильме Название: Аквамен и потерянное царство Оригинальное название: Aquaman and the Lost Kingdom Год выхода: 2023 Жанр: фантастика, фэнтези, боевик, приключения Режиссер: Джеймс Ван В ролях: Джейсон Момоа, Патрик Уилсон, Яхья Абдул-Матин II, Дольф Лундгрен, Темуэра Моррисон, Николь Кидман, Яни Жао, Эмбер Хёрд, Винсент Риган,Рэндалл Пак О фильме: Над Атлантидой нависла новая угроза, способная привести к необратимой катастрофе. Даже Аквамен не сможет справиться в одиночку – ему предстоит заключить неожиданный союз ради спасения своего королевства. Страна: США, Великобритания, Канада, Австралия, Исландия Студия: Atomic Monster, DC Studios, Safran Company The, Warner Bros. Продолжительность: 02:04:07 Перевод: Дублированный | TS (Украинский) Файл Кодек: x.264 Качество: WEB-DL 1080p Видео: AVC, 1920x1080 (16:9), 23.976 fps, 8 000 kb/s Аудио 1: AC3, 48.0 kHz, 2 ch, 192 kb/s | UKR Аудио 2: E-AC3 JOC, 48.0 kHz, 6 ch, 768 kb/s | ENG Субтитры: английские (full, SDH) Рекламы нет Трейлер | Сэмпл
[+] MIGeneral Unique ID : 311081084607316650141858571608421464015 (0xEA0809A001E46A4E69D13CE27E8677CF) Complete name : Aquaman and the Lost Kingdom (2023) WEB-DL 1080p Ukr(TS)_Eng .mkv Format : Matroska Format version : Version 4 File size : 7.68 GiB Duration : 2 h 4 min Overall bit rate : 8 862 kb/s Movie name : Aquaman and the Lost Kingdom (2023) Encoded date : UTC 2024-01-24 09:41:11 Writing application : mkvmerge v81.0 ('Milliontown') 64-bit Writing library : libebml v1.4.4 + libmatroska v1.7.1 Cover : Yes Attachments : Cover.jpg Video ID : 1 Format : AVC Format/Info : Advanced Video Codec Format profile : High@L4 Format settings : CABAC / 4 Ref Frames Format settings, CABAC : Yes Format settings, Reference frames : 4 frames Codec ID : V_MPEG4/ISO/AVC Duration : 2 h 4 min Bit rate : 8 000 kb/s Width : 1 920 pixels Height : 1 080 pixels Display aspect ratio : 16:9 Frame rate mode : Constant Frame rate : 23.976 (24000/1001) FPS Color space : YUV Chroma subsampling : 4:2:0 Bit depth : 8 bits Scan type : Progressive Bits/(Pixel*Frame) : 0.161 Stream size : 6.85 GiB (89%) Writing library : x264 core 164 r3094 bfc87b7 Encoding settings : cabac=1 / ref=4 / deblock=1:-1:-1 / analyse=0x3:0x133 / me=umh / subme=9 / psy=1 / psy_rd=1.00:0.15 / mixed_ref=1 / me_range=16 / chroma_me=1 / trellis=2 / 8x8dct=1 / cqm=0 / deadzone=21,11 / fast_pskip=1 / chroma_qp_offset=-3 / threads=12 / lookahead_threads=1 / sliced_threads=0 / nr=0 / decimate=1 / interlaced=0 / bluray_compat=0 / stitchable=1 / constrained_intra=0 / bframes=3 / b_pyramid=2 / b_adapt=2 / b_bias=0 / direct=3 / weightb=1 / open_gop=0 / weightp=2 / keyint=48 / keyint_min=4 / scenecut=0 / intra_refresh=0 / rc_lookahead=48 / rc=abr / mbtree=1 / bitrate=8000 / ratetol=1.0 / qcomp=0.60 / qpmin=0 / qpmax=69 / qpstep=4 / vbv_maxrate=8800 / vbv_bufsize=16000 / nal_hrd=none / filler=0 / ip_ratio=1.40 / aq=1:1.00 Default : Yes Forced : No Color range : Limited Color primaries : BT.709 Transfer characteristics : BT.709 Matrix coefficients : BT.709 Audio #1 ID : 2 Format : AC-3 Format/Info : Audio Coding 3 Commercial name : Dolby Digital Codec ID : A_AC3 Duration : 2 h 4 min Bit rate mode : Constant Bit rate : 192 kb/s Channel(s) : 2 channels Channel layout : L R Sampling rate : 48.0 kHz Frame rate : 31.250 FPS (1536 SPF) Compression mode : Lossy Stream size : 170 MiB (2%) Title : DUB (TS) Language : Ukrainian Service kind : Complete Main Default : Yes Forced : No Audio #2 ID : 3 Format : E-AC-3 JOC Format/Info : Enhanced AC-3 with Joint Object Coding Commercial name : Dolby Digital Plus with Dolby Atmos Codec ID : A_EAC3 Duration : 2 h 4 min Bit rate mode : Constant Bit rate : 768 kb/s Channel(s) : 6 channels Channel layout : L R C LFE Ls Rs Sampling rate : 48.0 kHz Frame rate : 31.250 FPS (1536 SPF) Compression mode : Lossy Stream size : 682 MiB (9%) Title : Original Language : English Service kind : Complete Main Default : No Forced : No Complexity index : 16 Number of dynamic objects : 15 Bed channel count : 1 channel Bed channel configuration : LFE Text #1 ID : 4 Format : UTF-8 Codec ID : S_TEXT/UTF8 Codec ID/Info : UTF-8 Plain Text Duration : 1 h 57 min Bit rate : 47 b/s Count of elements : 1192 Stream size : 41.0 KiB (0%) Title : Full Language : English Default : No Forced : No Text #2 ID : 5 Format : UTF-8 Codec ID : S_TEXT/UTF8 Codec ID/Info : UTF-8 Plain Text Duration : 1 h 57 min Bit rate : 58 b/s Count of elements : 1660 Stream size : 50.8 KiB (0%) Title : SDH Language : English Default : No Forced : No Menu 00:00:00.000 : en:Chapter 01 00:07:42.212 : en:Chapter 02 00:17:39.934 : en:Chapter 03 00:22:21.216 : en:Chapter 04 00:26:32.050 : en:Chapter 05 00:37:26.037 : en:Chapter 06 00:43:56.094 : en:Chapter 07 00:51:45.605 : en:Chapter 08 00:59:12.010 : en:Chapter 09 01:05:55.622 : en:Chapter 10 01:14:39.729 : en:Chapter 11 01:23:37.267 : en:Chapter 12 01:28:33.938 : en:Chapter 13 01:36:11.062 : en:Chapter 14 01:47:28.239 : en:Chapter 15 01:52:56.401 : en:Chapter 16
[+] Скриншоты
27.01.24 Замена на WEB-DL

Всего файлов в раздаче: 1 
Aquaman and the Lost Kingdom (2023) WEB-DL 1080p Ukr(TS)_Eng [Hurtom].mkv7.68 GB

Похожие раздачи по запросу - Аквамен
2024-02-13 magnet Аквамен и потерянное царство / Aquaman and the Lost Kingdom (2023) WEB-DL 720p от селезень | D, P 5.32 GB ↑ 0 ↓ 0
2024-02-12 magnet Аквамен и потерянное царство / Aquaman And The Lost Kingdom (2023) WEB-DL 1080p | D, P 8.74 GB ↑ 0 ↓ 0
2024-02-12 magnet Аквамен и потерянное царство / Aquaman and the Lost Kingdom (2023) WEB-DLRip 1080p | D 11.06 GB ↑ 0 ↓ 0
2024-02-11 magnet Аквамен и потерянное царство / Аквамен і загублене королівство / Aquaman and the Lost Kingdom (2023) WEB-DL-HEVC 2160p | 4K | SDR | D | UKR 14.25 GB ↑ 0 ↓ 0
2024-02-06 magnet Аквамен и потерянное царство / Аквамен і загублене королівство / Aquaman and the Lost Kingdom (2023) WEB-DL-HEVC 2160p | 4K | HDR | Dolby Vision Profile 8 | D | UKR 22.23 GB ↑ 0 ↓ 0
2024-02-06 magnet Аквамен и потерянное царство / Аквамен і загублене королівство / Aquaman and the Lost Kingdom (2023) WEB-DLRip | D | UKR 1.47 GB ↑ 0 ↓ 0
2024-02-06 magnet Аквамен и потерянное царство / Аквамен і загублене королівство / Aquaman and the Lost Kingdom (2023) WEB-DL 1080p | D | UKR 8.13 GB ↑ 0 ↓ 0

Комментарии


Зарегистрируйтесь чтобы добавить комментарий
Торрент клиент
byTorrent - программа для загрузки торрент-файлов.

Скачать byTorrent.exe (1,5 МБ)

Скачать byTorrent.zip (0,6 МБ)

Поддержи torrent.by
российских рублей
(300 российских рублей это 4$)

Обратная связь rss

End game ©