↑↓torrent.by
Поиск
Логин:  Регистрация
Пароль:

Повышая градус [01-08 из 13] (2024) WEBRip-AVC от Generalfilm | КПК

download Скачать торрент-файл   magnet Магнитная ссылка Размер: 860.05 MB Добавлен: 2024-01-28 17:00
Пиры будут получены из сети DHT
Последний сидер был замечен 2024-02-09 17:17
Информация о фильме Оригинальное название: Повышая градус Год выпуска: 2024 Жанр: Комедия Режиссер: Георгий Малков, Максим Максимов (V) В ролях: Ольга Тумайкина, Анна Уколова, Катерина Ковальчук, Павел Ворожцов, Вячеслав Чепурченко, Евгений Егоров, Кирилл Каганович, Андрей Пынзару, Тереза Диуро, Микаэль Амирханов, Георгий Малявский О сериале: Провинциальный ликеро-водочный завод «перешел» новым московским собственникам. На место заключенного под домашний арест старого директора ЛВЗ пришел молодой амбициозный Владимир. В первый же день он устанавливает свои порядки и избавляется от всего старого. А именно, увольняет старую секретаршу Дину, которая была душой коллектива, дерзкую техника-наладчика конвейера Иру и слишком требовательного к нормам качества молодого технолога Татьяну. Отчаявшись найти другую работу в своем городке, эти три женщины, выброшенные с родного завода, решают сделать свой собственный. Страна: Россия Студия: Кинокомпания "БигСкринПродакшн" Продолжительность: 8 х ~ 00:24:00 Перевод: Не требуется Файл Формат: MP4 Качество: WEBRip-AVC Видео: MPEG-4 AVC (x264), 640x360, ~ 500 kbps, 25.000 fps Аудио: AAC LC, 48.0 KHz, 2 ch, 128 Kbps Субтитры: Нет
[+] Скриншоты
[+] MIComplete name : D:киноPovyshaya.Gradus.S01.2024.WEBRip-AVC.KPK.GFPovyshaya.Gradus.s01e01.2024.WEBRip-AVC.KPK.GF.mp4 Format : MPEG-4 Codec ID : M4V (isom/iso2/avc1) File size : 112 MiB Duration : 24mn 41s Overall bit rate mode : Variable Overall bit rate : 634 Kbps Writing application : Lavf53.19.0 Video ID : 1 Format : AVC Format/Info : Advanced Video Codec Format profile : High@L4.1 Format settings, CABAC : Yes Format settings, ReFrames : 8 frames Codec ID : avc1 Codec ID/Info : Advanced Video Coding Duration : 24mn 41s Bit rate : 500 Kbps Width : 640 pixels Height : 360 pixels Display aspect ratio : 16:9 Frame rate mode : Constant Frame rate : 25.000 fps Color space : YUV Chroma subsampling : 4:2:0 Bit depth : 8 bits Scan type : Progressive Bits/(Pixel*Frame) : 0.087 Stream size : 88.3 MiB (79%) Writing library : x264 core 146 r2538 121396c Encoding settings : cabac=1 / ref=8 / deblock=1:-1:-1 / analyse=0x3:0x133 / me=umh / subme=10 / psy=1 / psy_rd=1.00:0.00 / mixed_ref=1 / me_range=24 / chroma_me=1 / trellis=2 / 8x8dct=1 / cqm=0 / deadzone=21,11 / fast_pskip=1 / chroma_qp_offset=-2 / threads=3 / lookahead_threads=1 / sliced_threads=0 / nr=0 / decimate=1 / interlaced=0 / bluray_compat=0 / constrained_intra=0 / bframes=8 / b_pyramid=2 / b_adapt=2 / b_bias=0 / direct=3 / weightb=1 / open_gop=0 / weightp=2 / keyint=250 / keyint_min=126 / scenecut=40 / intra_refresh=0 / rc_lookahead=40 / rc=2pass / mbtree=1 / bitrate=500 / ratetol=1.0 / qcomp=0.60 / qpmin=0 / qpmax=69 / qpstep=4 / cplxblur=20.0 / qblur=0.5 / ip_ratio=1.40 / aq=1:1.00 Menus : 3 Audio ID : 2 Format : AAC Format/Info : Advanced Audio Codec Format profile : LC Codec ID : 40 Duration : 24mn 41s Bit rate mode : Variable Bit rate : 128 Kbps Channel(s) : 2 channels Channel positions : Front: L R Sampling rate : 48.0 KHz Frame rate : 46.875 fps (1024 spf) Compression mode : Lossy Stream size : 22.6 MiB (20%) Default : Yes Alternate group : 1 Menus : 3
Релиз от:

Всего файлов в раздаче: 8 
Povyshaya.Gradus.s01e01.2024.WEBRip-AVC.KPK.GF.mp4112.03 MB
Povyshaya.Gradus.s01e02.2024.WEBRip-AVC.KPK.GF.mp4106.20 MB
Povyshaya.Gradus.s01e03.2024.WEBRip-AVC.KPK.GF.mp4102.02 MB
Povyshaya.Gradus.s01e04.2024.WEBRip-AVC.KPK.GF.mp4109.01 MB
Povyshaya.Gradus.s01e05.2024.WEBRip-AVC.KPK.GF.mp4104.91 MB
Povyshaya.Gradus.s01e06.2024.WEBRip-AVC.KPK.GF.mp4109.64 MB
Povyshaya.Gradus.s01e07.2024.WEBRip-AVC.KPK.GF.mp4111.07 MB
Povyshaya.Gradus.s01e08.2024.WEBRip-AVC.KPK.GF.mp4105.17 MB

Похожие раздачи по запросу - Повышая
2024-02-02 magnet Повышая градус [S01] (2024) WEBRip-AVC от Generalfilm | КПК 1.36 GB ↑ 0 ↓ 0
2024-02-01 magnet Повышая градус [01-13 из 13] (2024) WEBRip от Files-х 3.85 GB ↑ 0 ↓ 0
2024-01-31 magnet Повышая градус [S01] (2024) WEBRip 1080p 2К10.00 GB ↑ 0 ↓ 0
2024-01-31 magnet Повышая градус [S01] (2024) WEBRip-AVC от Files-х 1К3.84 GB ↑ 1 ↓ 0
2024-01-31 magnet Повышая градус [01-13 из 13] (2024) WEBRip 720p от Files-х 6.79 GB ↑ 0 ↓ 0
2024-01-30 magnet Повышая градус [01-10 из 13] (2024) WEBRip 1080p 3К7.69 GB ↑ 0 ↓ 0
2024-01-30 magnet Повышая градус [01-10 из 13] (2024) WEBRip-AVC от Files-х 1К2.95 GB ↑ 0 ↓ 0

Комментарии


Зарегистрируйтесь чтобы добавить комментарий
Торрент клиент
byTorrent - программа для загрузки торрент-файлов.

Скачать byTorrent.exe (1,5 МБ)

Скачать byTorrent.zip (0,6 МБ)

Поддержи torrent.by
российских рублей
(300 российских рублей это 4$)

Обратная связь rss

End game ©