↑↓torrent.by
Поиск
Логин:  Регистрация
Пароль:

Грисельда / Griselda [S01] (2024) WEB-DL 720p | HDrezka Studio

download Скачать торрент-файл   magnet Магнитная ссылка Размер: 9.21 GB Добавлен: 2024-01-28 17:00
Пиры будут получены из сети DHT
Последний сидер был замечен 2024-02-17 18:53
Информация о фильме Название: Грисельда Оригинальное название: Griselda Год выхода: 2024 Жанр: Криминал, биография, драма Режиссер: Андрес Байс В ролях: София Вергара, Альберто Герра, Джулиана Эйден Мартинес, Мартин Родригес, Хосе Веласкес, Орландо Пинеда, Мартин Фахардо, Ванесса Ферлито, Фреди Йэт, Камило Хименес Варон и другие. О фильме: Сериал основан на истории жизни хитроумной и амбициозной колумбийской наркобаронессы Грисельды Бланко, которая создала один из самых прибыльных картелей в истории. Страна: США Продолжительность: ~00:50:00 серия Перевод: Профессиональный (многоголосый, закадровый) HDrezka Studio Файл Кодек: MKV Качество: WEB-DL 720p Видео: AVC, 1280x720 (16:9), 2832 kbps (0.128 b/px), 23.976 fps Звук: Аудио #1: AC3, 192 kbps (CBR), 48.0 KHz , 2 ch, Russian - HDRezka Studio Аудио #2: AC3, 192 kbps (CBR), 48.0 KHz , 2 ch, Russian - HDRezka Studio 18+ Аудио #3: E-AC-3, 768 kbps (CBR), 48.0 KHz, 6 ch, English Субтитры: Русские (Forced , Full), английские РЕКЛАМЫ НЕТ
[+] MediaInfoОбщее Уникальный идентификатор : 25531902706876122205420511003715065459 (0x133543FE1A0E189E24FC9D7707E85673) Полное имя : E:СЕРИАЛЫGriselda.S01E01.720p.mkv Формат : Matroska Версия формата : Version 4 Размер файла : 1,45 Гбайт Продолжительность : 51 м. 55 с. Общий поток : 3 986 Кбит/сек Частота кадров : 23,976 кадра/сек Дата кодирования : 2024-01-26 08:18:46 UTC Программа кодирования : mkvmerge v45.0.0 ('Heaven in Pennies') 64-bit Библиотека кодирования : libebml v1.3.10 + libmatroska v1.5.2 Видео Идентификатор : 1 Формат : AVC Формат/Информация : Advanced Video Codec Профиль формата : High@L5.1 Настройки формата : CABAC / 4 Ref Frames Параметр CABAC формата : Да Параметр RefFrames формата : 4 кадра Идентификатор кодека : V_MPEG4/ISO/AVC Продолжительность : 51 м. 55 с. Битрейт : 2 832 Кбит/сек Номинальный битрейт : 3 000 Кбит/сек Ширина : 1 280 пикселей Высота : 720 пикселей Соотношение сторон : 16:9 Режим частоты кадров : Постоянный Частота кадров : 23,976 (24000/1001) кадра/сек Цветовое пространство : YUV Субдискретизация насыщенности : 4:2:0 Битовая глубина : 8 бит Тип развёртки : Прогрессивная Бит/(Пиксели*Кадры) : 0.128 Размер потока : 1,03 Гбайт (71%) Библиотека кодирования : x264 core 164 r3106 eaa68fa Настройки программы : cabac=1 / ref=3 / deblock=1:0:0 / analyse=0x3:0x113 / me=hex / subme=7 / psy=1 / psy_rd=1.00:0.00 / mixed_ref=1 / me_range=16 / chroma_me=1 / trellis=1 / 8x8dct=1 / cqm=0 / deadzone=21,11 / fast_pskip=1 / chroma_qp_offset=-2 / threads=22 / lookahead_threads=3 / sliced_threads=0 / nr=0 / decimate=1 / interlaced=0 / bluray_compat=0 / constrained_intra=0 / bframes=3 / b_pyramid=2 / b_adapt=1 / b_bias=0 / direct=1 / weightb=1 / open_gop=0 / weightp=2 / keyint=250 / keyint_min=23 / scenecut=40 / intra_refresh=0 / rc_lookahead=40 / rc=abr / mbtree=1 / bitrate=3000 / ratetol=1.0 / qcomp=0.60 / qpmin=0 / qpmax=69 / qpstep=4 / ip_ratio=1.40 / aq=1:1.00 Язык : English Default : Да Forced : Нет Цветовой диапазон : Limited Аудио #1 Идентификатор : 2 Формат : AC-3 Формат/Информация : Audio Coding 3 Коммерческое название : Dolby Digital Идентификатор кодека : A_AC3 Продолжительность : 51 м. 55 с. Вид битрейта : Постоянный Битрейт : 192 Кбит/сек Каналы : 2 канала Channel layout : L R Частота : 48,0 КГц Частота кадров : 31,250 кадров/сек (1536 SPF) Метод сжатия : С потерями Размер потока : 71,3 Мбайт (5%) Заголовок : HDR Язык : Russian Service kind : Complete Main Default : Да Forced : Нет Аудио #2 Идентификатор : 3 Формат : AC-3 Формат/Информация : Audio Coding 3 Коммерческое название : Dolby Digital Идентификатор кодека : A_AC3 Продолжительность : 51 м. 55 с. Вид битрейта : Постоянный Битрейт : 192 Кбит/сек Каналы : 2 канала Channel layout : L R Частота : 48,0 КГц Частота кадров : 31,250 кадров/сек (1536 SPF) Метод сжатия : С потерями Размер потока : 71,3 Мбайт (5%) Заголовок : HDR 18+ Язык : Russian Service kind : Complete Main Default : Нет Forced : Нет Аудио #3 Идентификатор : 4 Формат : E-AC-3 JOC Формат/Информация : Enhanced AC-3 with Joint Object Coding Коммерческое название : Dolby Digital Plus with Dolby Atmos Идентификатор кодека : A_EAC3 Продолжительность : 51 м. 55 с. Вид битрейта : Постоянный Битрейт : 768 Кбит/сек Каналы : 6 каналов Channel layout : L R C LFE Ls Rs Частота : 48,0 КГц Частота кадров : 31,250 кадров/сек (1536 SPF) Метод сжатия : С потерями Размер потока : 285 Мбайт (19%) Язык : English Service kind : Complete Main Default : Нет Forced : Нет Complexity index : 16 Number of dynamic objects : 15 Bed channel count : 1 канал Bed channel configuration : LFE Текст #1 Идентификатор : 5 Формат : UTF-8 Идентификатор кодека : S_TEXT/UTF8 Идентификатор кодека/Информация : UTF-8 Plain Text Продолжительность : 35 м. 14 с. Битрейт : 1 бит/сек Частота кадров : 0,005 кадр/сек Count of elements : 11 Размер потока : 496 байт (0%) Заголовок : fors Язык : Russian Default : Да Forced : Нет Текст #2 Идентификатор : 6 Формат : UTF-8 Идентификатор кодека : S_TEXT/UTF8 Идентификатор кодека/Информация : UTF-8 Plain Text Продолжительность : 49 м. 50 с. Битрейт : 68 бит/сек Частота кадров : 0,172 кадр/сек Count of elements : 513 Размер потока : 25,1 Кбайт (0%) Заголовок : Russian Язык : Russian Default : Нет Forced : Нет Текст #3 Идентификатор : 7 Формат : UTF-8 Идентификатор кодека : S_TEXT/UTF8 Идентификатор кодека/Информация : UTF-8 Plain Text Продолжительность : 42 м. 16 с. Битрейт : 16 бит/сек Частота кадров : 0,070 кадр/сек Count of elements : 177 Размер потока : 5,23 Кбайт (0%) Заголовок : English Язык : English Default : Нет Forced : Нет Текст #4 Идентификатор : 8 Формат : UTF-8 Идентификатор кодека : S_TEXT/UTF8 Идентификатор кодека/Информация : UTF-8 Plain Text Продолжительность : 50 м. 5 с. Битрейт : 54 бит/сек Частота кадров : 0,224 кадр/сек Count of elements : 674 Размер потока : 20,1 Кбайт (0%) Заголовок : English Язык : English Default : Нет Forced : Нет
[+] Скриншоты

Всего файлов в раздаче: 6 
Griselda.S01E01.720p.mkv1.45 GB
Griselda.S01E02.720p.mkv1.56 GB
Griselda.S01E03.720p.mkv1.63 GB
Griselda.S01E04.720p.mkv1.64 GB
Griselda.S01E05.720p.mkv1.58 GB
Griselda.S01E06.720p.mkv1.36 GB

Похожие раздачи по запросу - Грисельда
2024-02-05 magnet Грисельда / Griselda [S01] (2024) WEB-DL 1080p | P | Red Head Sound 18.97 GB ↑ 0 ↓ 0
2024-02-04 magnet Грисельда / Griselda [S01] (2024) WEB-DL 1080p от Jaskier | P | Jaskier 19.41 GB ↑ 0 ↓ 0
2024-01-29 magnet Грисельда / Griselda [S01] (2024) WEB-DLRip-AVC от DoMiNo & селезень | P | HDRezka Studio 4.79 GB ↑ 0 ↓ 0
2024-01-29 magnet Грисельда / Griselda [S01] (2024) WEB-DL 1080p | HDRezka Studio, ColdFilm 21.20 GB ↑ 0 ↓ 0
2024-01-27 magnet Грисельда / Griselda [01x01-02 из 6] (2024) WEB-DLRip-AVC от DoMiNo & селезень | P | HDRezka Studio 1.52 GB ↑ 0 ↓ 0
2024-01-27 magnet Грисельда / Griselda [01x01 из 6] (2024) WEB-DLRip-AVC от DoMiNo & селезень | P | HDRezka Studio 736.02 MB ↑ 0 ↓ 0
2024-01-26 magnet Грисельда / Griselda [01x01 из 6] (2024) WEB-DL 1080p | P, L | HDRezka Studio, ColdFilm 3.24 GB ↑ 0 ↓ 0

Комментарии


Зарегистрируйтесь чтобы добавить комментарий
Торрент клиент
byTorrent - программа для загрузки торрент-файлов.

Скачать byTorrent.exe (1,5 МБ)

Скачать byTorrent.zip (0,6 МБ)

Поддержи torrent.by
российских рублей
(300 российских рублей это 4$)

Обратная связь rss

End game ©