↑↓torrent.by
Поиск
Логин:  Регистрация
Пароль:

Меч короля / Bastarden / The Promised Land (2023) HDRip от New-Team | A | Сербин

download Скачать торрент-файл   magnet Магнитная ссылка Размер: 1.46 GB Добавлен: 2024-01-28 17:00
Пиры будут получены из сети DHT
Последний сидер был замечен 2024-02-13 22:44
Меч короля / Bastarden / The Promised Land Год выпуска: 2023 Выпущено: Дания, Швеция, Норвегия, Германия, Zentropa Entertainments, Zentropa International Berlin, Zentropa International Sweden Жанр: драма, биография, история Режиссер: Николай Арсель / Nikolaj Arcel В ролях: Мадс Миккельсен, Аманда Коллин, Густав Линд, Кристин Куят Торп, Якоб Ульрик Ломанн, Мортен Хи Андерсен, Сёрен Маллинг, Магнус Креппер, Томас В. Габриэльссон, Феликс Крамер О фильме: Датский король отправляет своего лучшего рыцаря обуздать дикие земли, покуда простирается его длань. Но здесь, за стенами высоких замков, свои законы. Местные князья не спешат подчиняться королевскому наместнику. Они сами решают, кто будет возделывать их земли, а кто упокоится в них навсегда. Конфликт усугубляет прекрасная дева, обещанная отцом местному феодалу. Оставить её — значит потерять честь. Спасти — обречь себя на верную гибель. Но там, где опытный политик отступает, истинный рыцарь обнажает меч. Продолжительность: 02:07:02 Перевод: Авторский (одноголосый, закадровый) | Ю. Сербин | Tnx.KinoPub Субтитры: нет. Раздача от: Автор релиза: JNS82. Формат: AVI Качество: HDRip Видео: 720x304 (2.35:1), 24,000 fps, XviD MPEG-4 ~ 1248 kbps avg, 0.238 bit/pixel, build 74 Аудио: 48 kHz, AC3 Dolby Digital, 3/2 (L,C,R,l,r) + LFE ch, ~ 384 kbps | RUS |
[+] MediaInfoОбщее Полное имя : D:TorrentsBastarden.2023.HDRip_от New-Team_by_JNS82.avi Формат : AVI Формат/Информация : Audio Video Interleave Размер файла : 1,46 Гбайт Продолжительность : 2 ч. 7 м. Общий поток : 1 641 Кбит/сек Программа кодирования : VirtualDubMod 1.5.10.2 (build 2540/release) Библиотека кодирования : VirtualDubMod build 2540/release Видео Идентификатор : 0 Формат : MPEG-4 Visual Профиль формата : Advanced Simple@L5 Настройки формата : BVOP1 / Custom Matrix Параметр BVOP формата : 1 Параметр QPel формата : Нет Параметр GMC формата : Без точки перехода Параметр матрицы формата : Выборочная Идентификатор кодека : XVID Идентификатор кодека/Подсказка : XviD Продолжительность : 2 ч. 7 м. Битрейт : 1 248 Кбит/сек Ширина : 720 пикселей Высота : 304 пикселя Соотношение сторон : 2,35:1 Частота кадров : 24,000 кадра/сек Цветовое пространство : YUV Субдискретизация насыщенности : 4:2:0 Битовая глубина : 8 бит Тип развёртки : Прогрессивная Метод сжатия : С потерями Бит/(Пиксели*Кадры) : 0.238 Размер потока : 1,11 Гбайт (76%) Библиотека кодирования : XviD 74 Аудио Идентификатор : 1 Формат : AC-3 Формат/Информация : Audio Coding 3 Коммерческое название : Dolby Digital Идентификатор кодека : 2000 Продолжительность : 2 ч. 7 м. Вид битрейта : Постоянный Битрейт : 384 Кбит/сек Каналы : 6 каналов Channel layout : L R C LFE Ls Rs Частота : 48,0 КГц Частота кадров : 31,250 кадров/сек (1536 SPF) Метод сжатия : С потерями Размер потока : 349 Мбайт (23%) Выравнивание : Разделение по промежуткам Продолжительность промежутка : 42 мс. (1,00 видеокадр) Время предзагрузки промежутка : 500 мс. Service kind : Complete Main

Всего файлов в раздаче: 1 
Bastarden.2023.HDRip_от New-Team_by_JNS82.avi1.46 GB

Похожие раздачи по запросу - Меч
2024-01-28 magnet Меч короля / Bastarden / The Promised Land (2023) HDRip-AVC от DoMiNo & селезень | P2, A 2.23 GB ↑ 0 ↓ 0
2024-01-28 magnet Меч короля / Bastarden / The Promised Land (2023) BDRip 1080p от New-Team | P2, A 2К13.66 GB ↑ 0 ↓ 0
2023-12-24 magnet Меч короля / Bastarden / The Promised Land (2023) HDRip-AVC от DoMiNo & селезень | P2 | ViruseProject 1.89 GB ↑ 0 ↓ 0
2023-12-24 magnet Меч короля / Bastarden / The Promised Land (2023) HDRip от New-Team | P2 | ViruseProject 1.46 GB ↑ 0 ↓ 0
2023-12-24 magnet Меч короля / Bastarden / The Promised Land (2023) BDRip 1080p от ExKinoRay | ViruseProject 9.84 GB ↑ 0 ↓ 0
2023-12-24 magnet Меч короля / Bastarden / The Promised Land (2023) BDRip 720p от ExKinoRay | ViruseProject 4.56 GB ↑ 0 ↓ 0
2023-12-24 magnet Меч короля / Bastarden / The Promised Land (2023) BDRip 1080p от JNS82 | L 13.32 GB ↑ 1 ↓ 0

Комментарии

konstantin56
Фильм, возможно, неплохой. Проблема в том, что он не дает зрителю новой информации, а сюжет достаточно прост и короток. Интересным его тоже назвать трудно. Не берусь судить о исторической точности, но как художественная - картина весьма средняя.


Зарегистрируйтесь чтобы добавить комментарий
Торрент клиент
byTorrent - программа для загрузки торрент-файлов.

Скачать byTorrent.exe (1,5 МБ)

Скачать byTorrent.zip (0,6 МБ)

Поддержи torrent.by
российских рублей
(300 российских рублей это 4$)

Обратная связь rss

End game ©