↑↓torrent.by
Поиск
Логин:  Регистрация
Пароль:

Меч короля / Bastarden / The Promised Land (2023) HDRip-AVC от DoMiNo & селезень | P2, A

download Скачать торрент-файл   magnet Магнитная ссылка Размер: 2.23 GB Добавлен: 2024-01-28 17:00
Пиры будут получены из сети DHT
Последний сидер был замечен 2024-02-03 18:23
Информация о фильме Название: Меч короля Оригинальное название: Bastarden / The Promised Land Год выпуска: 2023 Жанр: драма, биография, история Режиссер: Николай Арсель / Nikolaj Arcel В ролях: Мадс Миккельсен, Аманда Коллин, Густав Линд, Кристин Куят Торп, Якоб Ульрик Ломанн, Мортен Хи Андерсен, Сёрен Маллинг, Магнус Креппер, Томас В. Габриэльссон, Феликс Крамер О фильме: Датский король отправляет своего лучшего рыцаря обуздать дикие земли, покуда простирается его длань. Но здесь, за стенами высоких замков, свои законы. Местные князья не спешат подчиняться королевскому наместнику. Они сами решают, кто будет возделывать их земли, а кто упокоится в них навсегда. Конфликт усугубляет прекрасная дева, обещанная отцом местному феодалу. Оставить её — значит потерять честь. Спасти — обречь себя на верную гибель. Но там, где опытный политик отступает, истинный рыцарь обнажает меч. Выпущено: Дания, Швеция, Норвегия, Германия, Zentropa Entertainments, Zentropa International Berlin, Zentropa International Sweden Продолжительность: 02:07:07 Перевод 1: Профессиональный (двухголосый, закадровый) | ViruseProject Перевод 2: Авторский (одноголосый, закадровый) | Ю. Сербин Субтитры: Английские Файл Формат: Matroska Качество: HDRip-AVC Видео: 1152x482 at 24.000 fps, x264@L4.1, ~1938 kbps Аудио 1: AC3, 2 ch, ~192 kbps - | Русский | | ViruseProject Аудио 2: AC3, 6 ch, ~384 kbps - | Русский | | Ю. Сербин Формат субтитров: softsub (SRT) ***Рип от: -=DoMiNo=-
[+] M/Ix264 : frame I:1553 Avg QP:13.91 size: 72632 x264 : frame P:35335 Avg QP:15.56 size: 22921 x264 : frame B:146192 Avg QP:17.91 size: 6330 General Unique ID : 170046961718820318026905076704052211229 (0x7FEDDA826CEB09D752FF1141BE6B6E1D) Complete name : R:Bastarden.2023.DVO.AVO.HDRip.x264.seleZen.mkv Format : Matroska Format version : Version 4 File size : 2.23 GiB Duration : 2 h 7 min Overall bit rate : 2 516 kb/s Frame rate : 24.000 FPS Movie name : Bastarden.2023.DVO.AVO.HDRip.x264.seleZen Encoded date : 2024-01-28 09:40:25 UTC Writing application : mkvmerge v82.0 ('I'm The President') 64-bit Writing library : libebml v1.4.5 + libmatroska v1.7.1 Cover : Yes Attachments : cover.jpg / small_cover.jpg Video ID : 1 Format : AVC Format/Info : Advanced Video Codec Format profile : High@L4.1 Format settings : CABAC / 12 Ref Frames Format settings, CABAC : Yes Format settings, Reference : 12 frames Codec ID : V_MPEG4/ISO/AVC Duration : 2 h 7 min Bit rate : 1 938 kb/s Width : 1 152 pixels Height : 482 pixels Display aspect ratio : 2.40:1 Frame rate mode : Constant Frame rate : 24.000 FPS Color space : YUV Chroma subsampling : 4:2:0 Bit depth : 8 bits Scan type : Progressive Bits/(Pixel*Frame) : 0.145 Stream size : 1.72 GiB (77%) Title : -=DoMiNo=- Writing library : x264 core 164 r3172 -DoMiNo Encoding settings : cabac=1 / ref=12 / deblock=1:-2:-2 / analyse=0x3:0x133 / me=umh / subme=10 / psy=1 / psy_rd=1.05:0.03 / mixed_ref=1 / me_range=32 / chroma_me=1 / trellis=2 / 8x8dct=1 / cqm=0 / deadzone=21,11 / fast_pskip=0 / chroma_qp_offset=-3 / threads=17 / lookahead_threads=3 / sliced_threads=0 / nr=0 / decimate=1 / interlaced=0 / bluray_compat=0 / constrained_intra=0 / bframes=12 / b_pyramid=2 / b_adapt=2 / b_bias=0 / direct=3 / weightb=1 / open_gop=0 / weightp=2 / keyint=250 / keyint_min=24 / scenecut=40 / intra_refresh=0 / rc_lookahead=60 / rc=crf / mbtree=0 / crf=18.0 / qcomp=0.60 / qpmin=0 / qpmax=69 / qpstep=4 / vbv_maxrate=50000 / vbv_bufsize=62500 / crf_max=0.0 / nal_hrd=none / filler=0 / ip_ratio=1.40 / pb_ratio=1.25 / aq=3:0.80 Language : English Default : Yes Forced : No Audio #1 ID : 2 Format : AC-3 Format/Info : Audio Coding 3 Commercial name : Dolby Digital Codec ID : A_AC3 Duration : 2 h 7 min Bit rate mode : Constant Bit rate : 192 kb/s Channel(s) : 2 channels Channel layout : L R Sampling rate : 48.0 kHz Frame rate : 31.250 FPS (1536 SPF) Compression mode : Lossy Stream size : 175 MiB (8%) Title : DVO -ViruseProject Language : Russian Service kind : Complete Main Default : Yes Forced : No Audio #2 ID : 3 Format : AC-3 Format/Info : Audio Coding 3 Commercial name : Dolby Digital Codec ID : A_AC3 Duration : 2 h 7 min Bit rate mode : Constant Bit rate : 384 kb/s Channel(s) : 6 channels Channel layout : L R C LFE Ls Rs Sampling rate : 48.0 kHz Frame rate : 31.250 FPS (1536 SPF) Compression mode : Lossy Stream size : 349 MiB (15%) Title : Ю. Сербин Language : Russian Service kind : Complete Main Default : No Forced : No Text ID : 4 Format : UTF-8 Codec ID : S_TEXT/UTF8 Codec ID/Info : UTF-8 Plain Text Duration : 2 h 1 min Bit rate : 40 b/s Frame rate : 0.110 FPS Count of elements : 804 Stream size : 36.1 KiB (0%) Title : Full Language : English Default : No Forced : No Menu 00:00:00.000 : en:Chapter 01 00:16:10.667 : en:Chapter 02 00:30:16.583 : en:Chapter 03 00:46:32.292 : en:Chapter 04 01:02:41.708 : en:Chapter 05 01:18:14.833 : en:Chapter 06 01:35:21.250 : en:Chapter 07 01:48:55.375 : en:Chapter 08 02:02:54.208 : en:Chapter 09
Релиз: Присоединяйся к: Кликай на баннеры.

Всего файлов в раздаче: 1 
Bastarden.2023.DVO.AVO.HDRip.x264.seleZen.mkv2.23 GB

Похожие раздачи по запросу - Меч
2024-01-28 magnet Меч короля / Bastarden / The Promised Land (2023) HDRip от New-Team | A | Сербин 1К1.46 GB ↑ 0 ↓ 0
2024-01-28 magnet Меч короля / Bastarden / The Promised Land (2023) BDRip 1080p от New-Team | P2, A 2К13.66 GB ↑ 0 ↓ 0
2023-12-24 magnet Меч короля / Bastarden / The Promised Land (2023) HDRip-AVC от DoMiNo & селезень | P2 | ViruseProject 1.89 GB ↑ 0 ↓ 0
2023-12-24 magnet Меч короля / Bastarden / The Promised Land (2023) HDRip от New-Team | P2 | ViruseProject 1.46 GB ↑ 0 ↓ 0
2023-12-24 magnet Меч короля / Bastarden / The Promised Land (2023) BDRip 720p от ExKinoRay | ViruseProject 4.56 GB ↑ 0 ↓ 0
2023-12-24 magnet Меч короля / Bastarden / The Promised Land (2023) BDRip 1080p от JNS82 | L 13.32 GB ↑ 1 ↓ 0

Комментарии


Зарегистрируйтесь чтобы добавить комментарий
Торрент клиент
byTorrent - программа для загрузки торрент-файлов.

Скачать byTorrent.exe (1,5 МБ)

Скачать byTorrent.zip (0,6 МБ)

Поддержи torrent.by
российских рублей
(300 российских рублей это 4$)

Обратная связь rss

End game ©