↑↓torrent.by
Поиск
Логин:  Регистрация
Пароль:

Будика: Королева воинов / Boudica (2023) BDRip 1080p от селезень | D

download Скачать торрент-файл   magnet Магнитная ссылка Размер: 8.02 GB Добавлен: 2024-01-29 05:00
Пиры будут получены из сети DHT
Последний сидер был замечен 2024-01-29 05:00
Информация о фильме Название: Будика: Королева воинов Оригинальное название: Boudica Год выхода: 2023 Жанр: военный, боевик, история Режиссер: Джесси Джонсон В ролях: Ольга Куриленко, Клайв Стэнден, Петер Францен, Люси Мартин, Ник Моран, Лео Грегори, Гарри Киртон, Крис Джонсон, Литяна Бутанасева, Лилибет Бутанасева О фильме: Кельтская королева Будика правит народом иценов вместе со своим мужем Прасутагом. Когда он был предан и убит Римом, королевство Будики осталось без наследника, а римляне захватили их земли и имущество. Доведенная до безумия и полная решимости отомстить за смерть мужа и дочерей Будика объединяет племена региона и начинает эпическую войну против могущественной Римской империи. Страна: Великобритания Студия: Bleiberg Entertainment, Boudeg, Picture Perfect Продолжительность: 01:40:55 Перевод: Дублированный | Paragraph Media Качество: BDRip 1080p Видео: MPEG-4 AVC, 1920x804, 10.0 Mbit/s, 23.976 fps Аудио #01: 48 kHz, AC3, 5.1, 384 Kbps | Дублированный | Paragraph Media | RUS | Аудио #02: 48 kHz, E-AC3, 5.1, 384 Kbps | Дублированный | Paragraph Media | RUS | Аудио #03: 48 kHz, AC3, 5.1, 640 Kbps | Оригинал | ENG | Субтитры: Русские (Full), английские
[+] MIGeneral Unique ID : 235052652338924929197983056760369513122 (0xB0D57E819435C6B1DBA524A5627302A2) Complete name : H:VideoHBoudica.Queen.of.War.2023.BDRip.1080p.seleZen.mkv Format : Matroska Format version : Version 4 File size : 8.02 GiB Duration : 1 h 40 min Overall bit rate : 11.4 Mb/s Frame rate : 23.976 FPS Movie name : Boudica: Queen of War 2023 from seleZen Encoded date : 2024-01-28 17:03:55 UTC Writing application : mkvmerge v80.0 ('Roundabout') 64-bit Writing library : libebml v1.4.4 + libmatroska v1.7.1 Video ID : 1 Format : AVC Format/Info : Advanced Video Codec Format profile : High@L4.1 Format settings : CABAC / 5 Ref Frames Format settings, CABAC : Yes Format settings, Reference : 5 frames Codec ID : V_MPEG4/ISO/AVC Duration : 1 h 40 min Bit rate : 10 000 kb/s Width : 1 920 pixels Height : 804 pixels Display aspect ratio : 2.40:1 Frame rate mode : Constant Frame rate : 23.976 (24000/1001) FPS Color space : YUV Chroma subsampling : 4:2:0 Bit depth : 8 bits Scan type : Progressive Bits/(Pixel*Frame) : 0.270 Stream size : 7.03 GiB (88%) Writing library : x264 core 164 r3164 seleZen Encoding settings : cabac=1 / ref=5 / deblock=1:-2:-2 / analyse=0x3:0x133 / me=umh / subme=11 / psy=1 / psy_rd=1.05:0.04 / mixed_ref=1 / me_range=48 / chroma_me=1 / trellis=2 / 8x8dct=1 / cqm=0 / deadzone=21,11 / fast_pskip=0 / chroma_qp_offset=-3 / threads=25 / lookahead_threads=6 / sliced_threads=0 / nr=0 / decimate=0 / interlaced=0 / bluray_compat=0 / constrained_intra=0 / bframes=10 / b_pyramid=2 / b_adapt=2 / b_bias=0 / direct=3 / weightb=1 / open_gop=0 / weightp=2 / keyint=240 / keyint_min=23 / scenecut=40 / intra_refresh=0 / rc_lookahead=60 / rc=2pass / mbtree=0 / bitrate=10000 / ratetol=1.0 / qcomp=0.60 / qpmin=0 / qpmax=51 / qpstep=4 / cplxblur=20.0 / qblur=0.5 / vbv_maxrate=50000 / vbv_bufsize=62500 / nal_hrd=none / filler=0 / ip_ratio=1.40 / pb_ratio=1.30 / aq=3:0.80 Language : English Default : Yes Forced : No Audio #1 ID : 2 Format : AC-3 Format/Info : Audio Coding 3 Commercial name : Dolby Digital Codec ID : A_AC3 Duration : 1 h 40 min Bit rate mode : Constant Bit rate : 384 kb/s Channel(s) : 6 channels Channel layout : L R C LFE Ls Rs Sampling rate : 48.0 kHz Frame rate : 31.250 FPS (1536 SPF) Compression mode : Lossy Stream size : 277 MiB (3%) Title : Dub Language : Russian Service kind : Complete Main Default : Yes Forced : No Audio #2 ID : 3 Format : E-AC-3 Format/Info : Enhanced AC-3 Commercial name : Dolby Digital Plus Codec ID : A_EAC3 Duration : 1 h 40 min Bit rate mode : Constant Bit rate : 384 kb/s Channel(s) : 6 channels Channel layout : L R C LFE Ls Rs Sampling rate : 48.0 kHz Frame rate : 31.250 FPS (1536 SPF) Compression mode : Lossy Stream size : 277 MiB (3%) Title : Dub Language : Russian Service kind : Complete Main Default : No Forced : No Audio #3 ID : 4 Format : AC-3 Format/Info : Audio Coding 3 Commercial name : Dolby Digital Codec ID : A_AC3 Duration : 1 h 40 min Bit rate mode : Constant Bit rate : 640 kb/s Channel(s) : 6 channels Channel layout : L R C LFE Ls Rs Sampling rate : 48.0 kHz Frame rate : 31.250 FPS (1536 SPF) Compression mode : Lossy Stream size : 462 MiB (6%) Title : Original Language : English Service kind : Complete Main Default : No Forced : No Text #1 ID : 5 Format : UTF-8 Codec ID : S_TEXT/UTF8 Codec ID/Info : UTF-8 Plain Text Duration : 1 h 33 min Bit rate : 78 b/s Frame rate : 0.187 FPS Count of elements : 1053 Stream size : 54.0 KiB (0%) Title : Full (ATLA22) Language : Russian Default : No Forced : No Text #2 ID : 6 Format : UTF-8 Codec ID : S_TEXT/UTF8 Codec ID/Info : UTF-8 Plain Text Duration : 1 h 35 min Bit rate : 40 b/s Frame rate : 0.183 FPS Count of elements : 1054 Stream size : 28.4 KiB (0%) Title : Full Language : English Default : No Forced : No Text #3 ID : 7 Format : UTF-8 Codec ID : S_TEXT/UTF8 Codec ID/Info : UTF-8 Plain Text Duration : 1 h 37 min Bit rate : 44 b/s Frame rate : 0.203 FPS Count of elements : 1188 Stream size : 31.6 KiB (0%) Title : SDH Language : English Default : No Forced : No Menu 00:00:00.000 : en:Глава 01 00:09:16.139 : en:Глава 02 00:18:23.978 : en:Глава 03 00:24:40.354 : en:Глава 04 00:37:41.926 : en:Глава 05 00:43:44.664 : en:Глава 06 00:51:27.626 : en:Глава 07 01:02:30.121 : en:Глава 08 01:09:51.145 : en:Глава 09 01:17:33.816 : en:Глава 10 01:24:01.870 : en:Глава 11 01:35:36.522 : en:Глава 12
Релиз: Присоединяйся к: Кликай на баннеры.

Всего файлов в раздаче: 1 
Boudica.Queen.of.War.2023.BDRip.1080p.seleZen.mkv8.02 GB

Похожие раздачи по запросу - Будика
2024-01-29 magnet Будика: Королева воинов / Boudica (2023) BDRip от MegaPeer | D 1.46 GB ↑ 0 ↓ 0
2024-01-29 magnet Будика: Королева воинов / Boudica (2023) BDRip 720p от DoMiNo & селезень | D 4.44 GB ↑ 0 ↓ 0
2023-12-19 magnet Будика: Королева воинов / Boudica (2023) WEB-DL 1080p от ELEKTRI4KA | D 1К8.32 GB ↑ 0 ↓ 0

Комментарии


Зарегистрируйтесь чтобы добавить комментарий
Торрент клиент
byTorrent - программа для загрузки торрент-файлов.

Скачать byTorrent.exe (1,5 МБ)

Скачать byTorrent.zip (0,6 МБ)

Поддержи torrent.by
российских рублей
(300 российских рублей это 4$)

Обратная связь rss

End game ©