↑↓torrent.by
Поиск
Логин:  Регистрация
Пароль:

Догмен / Dogman (2023) BDRip-AVC от New-Team | D

download Скачать торрент-файл   magnet Магнитная ссылка Размер: 2.05 GB Добавлен: 2024-01-29 05:00
Пиры будут получены из сети DHT
Последний сидер был замечен 2024-02-13 23:21
Догмен / Dogman Год выпуска: 2023 Выпущено: Франция, Canal+ , Ciné, EuropaCorp, Luc Besson Production, TF1 Films Production, TMC Жанр: Криминал, драма, триллер Режиссер: Люк Бессон / Luc Besson В ролях: Калеб Лэндри Джонс, Мариса Беренсон, Кристофер Денэм, Майкл Гарза, ДжоДжо Ти Гиббс, Клеменс Шик, Джеймс Пэйтон, Ирис Бри, Корин Делакур, Атик, Грейс Пальма, Беннет Зальцман, Том Либ, Луинг Эндрюс, Си Си Денейра, Джефф Мэнтел, Эрик Картер, Джо Шеридан, Том Хадсон (II), Аван Странжель, Джаррет Джей Мерц, Джимми Палумбо, Пьер-Эдуар Белланка, Алиун Сане, Тонио Десканвель, Эди Бушенафа, Меледен Якуби, Бьянка Мелгар, Чарльз Грэй (II) О фильме: Попавшегося полиции странного мужчину в инвалидной коляске, у которого фургоне обнаружили стаю разнопородных собак, а в месте его проживания — несколько трупов, допрашивает психиатр-криминалист. Тот охотно рассказывает о своём трудном детстве: как жестокий отец посадил его в клетку к псам, из-за чего у мальчика развилась с животными невероятная эмоциональная связь — теперь собаки в точности выполняют все его приказы. Продолжительность: 01:54:33 Перевод: Профессиональный (полное, дублирование) | Мосфильм-Мастер Субтитры: Русские (forced, full), английские Раздача от: Автор релиза: JNS82. Формат: MKV Качество: BDRip-AVC Видео: MPEG-4 AVC, 1724 Кбит/с, 1024x428 Аудио #1: AC3, 6 ch, 448 Кбит/с | RUS | Аудио #2: AC3, 6 ch, 384 Кбит/с | ENG |
[+] MediaInfoОбщее Уникальный идентификатор : 337833906261722202901718390411509240665 (0xFE287191BA4180EEBD56B39CCF421359) Полное имя : D:TorrentsDogman.2023.BDRip-AVC_от New-Team_by_JNS82.mkv Формат : Matroska Версия формата : Version 4 Размер файла : 2,05 Гбайт Продолжительность : 1 ч. 54 м. Общий поток : 2 557 Кбит/сек Название фильма : Dogman.2023.BDRip-AVC_от New-Team_by_JNS82 Дата кодирования : UTC 2024-01-28 14:08:13 Программа кодирования : mkvmerge v79.0 ('Funeral Pyres') 64-bit Библиотека кодирования : libebml v1.4.4 + libmatroska v1.7.1 Видео Идентификатор : 1 Формат : AVC Формат/Информация : Advanced Video Codec Профиль формата : High@L4.1 Настройки формата : CABAC / 12 Ref Frames Параметр CABAC формата : Да Параметр RefFrames формата : 12 кадров Идентификатор кодека : V_MPEG4/ISO/AVC Продолжительность : 1 ч. 54 м. Битрейт : 1 724 Кбит/сек Ширина : 1 024 пикселя Высота : 428 пикселей Соотношение сторон : 2,40:1 Режим частоты кадров : Постоянный Частота кадров : 24,000 кадра/сек Цветовое пространство : YUV Субдискретизация насыщенности : 4:2:0 Битовая глубина : 8 бит Тип развёртки : Прогрессивная Бит/(Пиксели*Кадры) : 0.164 Размер потока : 1,38 Гбайт (67%) Библиотека кодирования : x264 core 164 r3156+57M NewTeam t_mod_New Настройки программы : cabac=1 / ref=12 / deblock=1:-3:-3 / analyse=0x3:0x133 / me=umh / subme=10 / psy=1 / fade_compensate=0.00 / psy_rd=1.02:0.05 / mixed_ref=1 / me_range=32 / chroma_me=1 / trellis=2 / 8x8dct=1 / cqm=0 / deadzone=21,11 / fast_pskip=0 / chroma_qp_offset=-3 / threads=13 / lookahead_threads=3 / sliced_threads=0 / nr=0 / decimate=0 / interlaced=0 / bluray_compat=0 / constrained_intra=0 / fgo=0 / bframes=10 / b_pyramid=2 / b_adapt=2 / b_bias=0 / direct=3 / weightb=1 / open_gop=0 / weightp=2 / keyint=250 / keyint_min=23 / scenecut=40 / intra_refresh=0 / rc_lookahead=40 / rc=2pass / mbtree=0 / bitrate=1724 / ratetol=1.0 / qcomp=0.60 / qpmin=0:0:0 / qpmax=69:69:69 / qpstep=4 / cplxblur=20.0 / qblur=0.5 / vbv_maxrate=50000 / vbv_bufsize=62500 / nal_hrd=none / filler=0 / ip_ratio=1.40 / pb_ratio=1.30 / aq=1:1.00 / aq-sensitivity=10.00 / aq-factor=1.00:1.00:1.00 / aq2=0 / aq3=0 Язык : English Default : Да Forced : Нет Аудио #1 Идентификатор : 2 Формат : AC-3 Формат/Информация : Audio Coding 3 Коммерческое название : Dolby Digital Идентификатор кодека : A_AC3 Продолжительность : 1 ч. 54 м. Вид битрейта : Постоянный Битрейт : 448 Кбит/сек Каналы : 6 каналов Channel layout : L R C LFE Ls Rs Частота : 48,0 КГц Частота кадров : 31,250 кадров/сек (1536 SPF) Метод сжатия : С потерями Размер потока : 367 Мбайт (18%) Заголовок : DUB - Мосфильм-Мастер Язык : Russian Service kind : Complete Main Default : Да Forced : Нет Аудио #2 Идентификатор : 3 Формат : AC-3 Формат/Информация : Audio Coding 3 Коммерческое название : Dolby Digital Идентификатор кодека : A_AC3 Продолжительность : 1 ч. 54 м. Вид битрейта : Постоянный Битрейт : 384 Кбит/сек Каналы : 6 каналов Channel layout : L R C LFE Ls Rs Частота : 48,0 КГц Частота кадров : 31,250 кадров/сек (1536 SPF) Метод сжатия : С потерями Размер потока : 314 Мбайт (15%) Заголовок : Original Язык : English Service kind : Complete Main Default : Нет Forced : Нет Текст #1 Идентификатор : 4 Формат : UTF-8 Идентификатор кодека : S_TEXT/UTF8 Идентификатор кодека/Информация : UTF-8 Plain Text Продолжительность : 22 м. 59 с. Битрейт : 40 бит/сек Count of elements : 92 Размер потока : 6,77 Кбайт (0%) Заголовок : Язык : Russian Default : Да Forced : Нет Текст #2 Идентификатор : 5 Формат : UTF-8 Идентификатор кодека : S_TEXT/UTF8 Идентификатор кодека/Информация : UTF-8 Plain Text Продолжительность : 1 ч. 47 м. Битрейт : 79 бит/сек Count of elements : 1385 Размер потока : 62,7 Кбайт (0%) Заголовок : Язык : Russian Default : Нет Forced : Нет Текст #3 Идентификатор : 6 Формат : UTF-8 Идентификатор кодека : S_TEXT/UTF8 Идентификатор кодека/Информация : UTF-8 Plain Text Продолжительность : 1 ч. 51 м. Битрейт : 49 бит/сек Count of elements : 1376 Размер потока : 40,6 Кбайт (0%) Язык : English Default : Нет Forced : Нет Меню 00:00:00.000 : en:Глава 01 00:09:44.458 : en:Глава 02 00:21:02.083 : en:Глава 03 00:29:35.667 : en:Глава 04 00:38:56.667 : en:Глава 05 00:47:17.000 : en:Глава 06 00:56:50.083 : en:Глава 07 01:09:24.833 : en:Глава 08 01:19:15.458 : en:Глава 09 01:26:21.125 : en:Глава 10 01:32:57.333 : en:Глава 11 01:41:19.583 : en:Глава 12
Цитатаstiilet писал: *** Версия фильма, длиннее русского WEB-DL порядком на 4 минуты, на сцены без дубляжа сделаны русские форсированные субтитры. *** В вариант полной версии WEB-DL, а также в релизах BDRip, BDRemux от РГ Селезень звуковой дорожки и субтитров внесены изменения, в двух местах присутствовала нестыковка диалогов и субтитров.

Всего файлов в раздаче: 1 
Dogman.2023.BDRip-AVC_от New-Team_by_JNS82.mkv2.05 GB

Похожие раздачи по запросу - Догмен
2024-02-12 magnet Догмен / Dogman (2023) WEB-DL 2160p | 4K | HDR | Dolby Vision | D, A 16.52 GB ↑ 1 ↓ 0
2024-02-05 magnet Догмен / Dogman (2023) BDRip от toxics | D, A 2.18 GB ↑ 1 ↓ 0
2024-02-03 magnet Догмен / Dogman (2023) HDRip-AVC от ExKinoRay | D 744.86 MB ↑ 0 ↓ 0
2024-02-03 magnet Догмен / Dogman (2023) BDRip 1080p от ExKinoRay | D, A 8.69 GB ↑ 0 ↓ 0
2024-02-01 magnet Догмен / Dogman (Люк Бессон) [2023, боевик, WEB-DLRip-AVC] [Без цензуры] Dub (Мосфильм-Мастер) 2.18 GB ↑ 0 ↓ 0
2024-02-01 magnet Догмен / Dogman (2023) BDRip 1080p от Generalfilm | D 9.72 GB ↑ 0 ↓ 0
2024-01-29 magnet Догмен / Dogman (2023) BDRip от MegaPeer | D 1.46 GB ↑ 0 ↓ 0

Комментарии


Зарегистрируйтесь чтобы добавить комментарий
Торрент клиент
byTorrent - программа для загрузки торрент-файлов.

Скачать byTorrent.exe (1,5 МБ)

Скачать byTorrent.zip (0,6 МБ)

Поддержи torrent.by
российских рублей
(300 российских рублей это 4$)

Обратная связь rss

End game ©