↑↓torrent.by
Поиск
Логин:  Регистрация
Пароль:

Другие: Проклятие кукушки / The Cuckoo's Curse / El Cuco (2023) BDRip 720p от DoMiNo & селезень | D

download Скачать торрент-файл   magnet Магнитная ссылка Размер: 2.62 GB Добавлен: 2024-01-29 05:00
Пиры будут получены из сети DHT
Последний сидер был замечен 2024-02-07 23:40
Информация о фильме Название: Другие: Проклятие кукушки Оригинальное название: The Cuckoo's Curse / El Cuco Год выхода: 2023 Жанр: ужасы, фэнтези, триллер Режиссер: Мар Таргарона В ролях: Белен Куэста, Хорхе Сукет, Хильдегард Шредтер, Райнер Рейнерс, Чача Хуан, Давид Сельвас, Манель Дуэсо, Марта Херреро Кахигаль, Юрген Брюдер, Марина Гэтелл О фильме: Молодая пара Анна и Марк решают поменяться домами с приятными пожилыми людьми, с которыми они познакомились в интернете. То, что начиналось как прекрасный отпуск, со временем превращается в настоящий кошмар: они узнают, что у новых знакомых есть дьявольские планы на их счет. Страна: Испания, Германия Студия: Barry Films, Rodar y Rodar Cine y Televisión S.L. Продолжительность: 01:43:10 Перевод: Дублированный | Кипарис Субтитры: Русские (Forced), Английские, Испанские Файл Формат: Matroska Качество: BDRip 720p Видео: 1280x536 at 24.000 fps, x264@L4.1, ~2799 kbps Аудио 1: AC3, 6 ch, ~384 kbps - | Русский | Аудио 2: AC3, 6 ch, ~448 kbps - | Испанский | Формат субтитров: softsub (SRT) ***Рип от: -=DoMiNo=-
[+] M/Ix264 : frame I:1016 Avg QP:13.02 size: 83623 x264 : frame P:30772 Avg QP:14.30 size: 32751 x264 : frame B:116774 Avg QP:16.45 size: 9187 General Unique ID : 81427438481800742777060707408393768780 (0x3D425AAD4A0FEA8F24F07569D2CF8F4C) Complete name : R:El.Cuco.2023.DUB.BDRip.720p.x264.seleZen.mkv Format : Matroska Format version : Version 4 File size : 2.62 GiB Duration : 1 h 43 min Overall bit rate : 3 633 kb/s Frame rate : 24.000 FPS Movie name : El.Cuco.2023.DUB.BDRip.720p.x264.seleZen Encoded date : 2024-01-28 13:32:01 UTC Writing application : mkvmerge v82.0 ('I'm The President') 64-bit Writing library : libebml v1.4.5 + libmatroska v1.7.1 Cover : Yes Attachments : cover.jpg / small_cover.jpg Video ID : 1 Format : AVC Format/Info : Advanced Video Codec Format profile : High@L4.1 Format settings : CABAC / 12 Ref Frames Format settings, CABAC : Yes Format settings, Reference : 12 frames Codec ID : V_MPEG4/ISO/AVC Duration : 1 h 43 min Bit rate : 2 799 kb/s Width : 1 280 pixels Height : 536 pixels Display aspect ratio : 2.40:1 Frame rate mode : Constant Frame rate : 24.000 FPS Color space : YUV Chroma subsampling : 4:2:0 Bit depth : 8 bits Scan type : Progressive Bits/(Pixel*Frame) : 0.170 Stream size : 2.02 GiB (77%) Title : -=DoMiNo=- Writing library : x264 core 164 r3173 -DoMiNo Encoding settings : cabac=1 / ref=12 / deblock=1:-2:-2 / analyse=0x3:0x133 / me=umh / subme=10 / psy=1 / psy_rd=1.05:0.05 / mixed_ref=1 / me_range=32 / chroma_me=1 / trellis=2 / 8x8dct=1 / cqm=0 / deadzone=21,11 / fast_pskip=0 / chroma_qp_offset=-3 / threads=17 / lookahead_threads=2 / sliced_threads=0 / nr=0 / decimate=0 / interlaced=0 / bluray_compat=0 / constrained_intra=0 / bframes=9 / b_pyramid=2 / b_adapt=2 / b_bias=0 / direct=1 / weightb=1 / open_gop=0 / weightp=2 / keyint=250 / keyint_min=24 / scenecut=40 / intra_refresh=0 / rc_lookahead=60 / rc=crf / mbtree=0 / crf=16.8 / qcomp=0.60 / qpmin=0 / qpmax=69 / qpstep=4 / vbv_maxrate=50000 / vbv_bufsize=62500 / crf_max=0.0 / nal_hrd=none / filler=0 / ip_ratio=1.32 / pb_ratio=1.30 / aq=3:0.80 Language : English Default : Yes Forced : No Color range : Limited Color primaries : BT.709 Transfer characteristics : BT.709 Matrix coefficients : BT.709 Audio #1 ID : 2 Format : AC-3 Format/Info : Audio Coding 3 Commercial name : Dolby Digital Codec ID : A_AC3 Duration : 1 h 43 min Bit rate mode : Constant Bit rate : 384 kb/s Channel(s) : 6 channels Channel layout : L R C LFE Ls Rs Sampling rate : 48.0 kHz Frame rate : 31.250 FPS (1536 SPF) Compression mode : Lossy Stream size : 283 MiB (11%) Title : Dub Language : Russian Service kind : Complete Main Default : Yes Forced : No Audio #2 ID : 3 Format : AC-3 Format/Info : Audio Coding 3 Commercial name : Dolby Digital Codec ID : A_AC3 Duration : 1 h 43 min Bit rate mode : Constant Bit rate : 448 kb/s Channel(s) : 6 channels Channel layout : L R C LFE Ls Rs Sampling rate : 48.0 kHz Frame rate : 31.250 FPS (1536 SPF) Compression mode : Lossy Stream size : 330 MiB (12%) Title : Original Language : Spanish Service kind : Complete Main Default : No Forced : No Text #1 ID : 4 Format : UTF-8 Codec ID : S_TEXT/UTF8 Codec ID/Info : UTF-8 Plain Text Duration : 32 min 42 s Bit rate : 0 b/s Frame rate : 0.003 FPS Count of elements : 5 Stream size : 171 Bytes (0%) Title : Forced Language : Russian Default : No Forced : No Text #2 ID : 5 Format : UTF-8 Codec ID : S_TEXT/UTF8 Codec ID/Info : UTF-8 Plain Text Duration : 1 h 35 min Bit rate : 26 b/s Frame rate : 0.136 FPS Count of elements : 781 Stream size : 18.7 KiB (0%) Title : English (SRT) Language : English Default : No Forced : No Text #3 ID : 6 Format : UTF-8 Codec ID : S_TEXT/UTF8 Codec ID/Info : UTF-8 Plain Text Duration : 1 h 8 min Bit rate : 1 b/s Frame rate : 0.007 FPS Count of elements : 27 Stream size : 731 Bytes (0%) Title : Forced Language : Spanish Default : No Forced : No Text #4 ID : 7 Format : UTF-8 Codec ID : S_TEXT/UTF8 Codec ID/Info : UTF-8 Plain Text Duration : 1 h 42 min Bit rate : 38 b/s Frame rate : 0.177 FPS Count of elements : 1092 Stream size : 28.7 KiB (0%) Title : SDH Language : Spanish Default : No Forced : No Menu 00:00:00.000 : en:Chapter 1 00:10:32.667 : en:Chapter 2 00:19:23.792 : en:Chapter 3 00:28:50.000 : en:Chapter 4 00:35:58.875 : en:Chapter 5 00:45:10.583 : en:Chapter 6 00:53:17.000 : en:Chapter 7 01:03:15.833 : en:Chapter 8 01:09:08.083 : en:Chapter 9 01:23:20.500 : en:Chapter 10 01:37:31.375 : en:Chapter 11
Релиз: Присоединяйся к: Кликай на баннеры.

Всего файлов в раздаче: 1 
El.Cuco.2023.DUB.BDRip.720p.x264.seleZen.mkv2.62 GB

Похожие раздачи по запросу - Другие
2024-02-15 magnet Серия - «Другие миры» [126 книг] (2015-2024) FB2 281.46 MB ↑ 0 ↓ 0
2024-02-11 magnet Смерть и другие подробности / Death and Other Details [01x01-04 из 10] (2024) WEB-DLRip | TVShows 2.86 GB ↑ 0 ↓ 0
2024-01-27 magnet Другие: Проклятие кукушки / The Cuckoo's Curse / El Cuco (2023) BDRip 1080p от ExKinoRay | D 9.77 GB ↑ 0 ↓ 0
2023-09-30 magnet Серия - «Другие миры» [122 книги] (2015-2023) FB2 270.74 MB ↑ 0 ↓ 0
2023-07-20 magnet Лю Цысинь и другие - Сломанные звезды. Новейшая китайская фантастика (2020) FB2 3.26 MB ↑ 0 ↓ 0
2023-05-23 magnet Серия - «Другие миры» [116 книг] (2015-2023) FB2 255.48 MB ↑ 0 ↓ 0
2023-01-13 magnet Роберт Шекли - Похмелье и другие рассказы (2003) МР3 640.22 MB ↑ 1 ↓ 0

Комментарии


Зарегистрируйтесь чтобы добавить комментарий
Торрент клиент
byTorrent - программа для загрузки торрент-файлов.

Скачать byTorrent.exe (1,5 МБ)

Скачать byTorrent.zip (0,6 МБ)

Поддержи torrent.by
российских рублей
(300 российских рублей это 4$)

Обратная связь rss

End game ©