↑↓torrent.by
Поиск
Логин:  Регистрация
Пароль:

Хамелеон [01-04 серии из 04] (2023) HDTV 1080p от Files-x

download Скачать торрент-файл   magnet Магнитная ссылка Размер: 9.50 GB Добавлен: 2024-01-29 05:00
Пиры будут получены из сети DHT
Последний сидер был замечен 2024-02-27 08:23
Информация о фильме Оригинальное название: Хамелеон Год выхода: 2023 Жанр: Детектив, боевик, комедия Режиссер: Роман Ярославцев В ролях: Дмитрий Пчела, Мария Пирогова, Илья Ловкий, Сергей Комаров (II), Никита Тезов, Карина Мишулина, Вячеслав Кулаков, Максим Радугин, Борис Эстрин, Макс Климка, Александра Белоглазова, Денис Светличный, Татьяна Герман, Александр Волков (III) О фильме: В ОПГ наркоторговцев внедряется агент ФСБ – Антон Старцев. В силу обстоятельств Антон погибает. Вместо него отдел вербует его брата Сергея. Сергей, мелкий уголовник, категорически не желает работать на «отдел». У него в разгаре роман со Светланой. И вообще, ему кажется, что его всё в жизни устраивает. Но когда преступники берут в заложники его девушку, он вынужден занять место своего брата и продолжить выполнять задание по ликвидации ОПГ. Страна: Россия Студия: Студия Победа Фильм по заказу НТВ Продолжительность: 4 x ~ 00:48:00 Перевод: Не требуется Файл Кодек: h.264 Качество: HDTV 1080p Видео: MPEG-4 AVC, ~ 6505 Кбит/с, 1920x1080, 25 кадр/с Звук: MP2, 2 ch, 192 Кбит/с
[+] Скриншоты
[+] MediaInfo General ID : 1 (0x1) Complete name : C:01.Хамелеон.s01.E01.(2023).HDTV.(1080р).by.Nicodem.Files-x.ts Format : MPEG-TS File size : 2.36 GiB Duration : 47mn 55s Overall bit rate : 7 047 Kbps Maximum Overall bit rate : 35.5 Mbps Video ID : 4113 (0x1011) Menu ID : 1 (0x1) Format : AVC Format/Info : Advanced Video Codec Format profile : High@L4.1 Format settings, CABAC : No Format settings, ReFrames : 3 frames Codec ID : 27 Duration : 47mn 55s Bit rate mode : Variable Bit rate : 6 505 Kbps Maximum bit rate : 40.0 Mbps Width : 1 920 pixels Height : 1 080 pixels Display aspect ratio : 16:9 Frame rate : 25.000 fps Color space : YUV Chroma subsampling : 4:2:0 Bit depth : 8 bits Scan type : Progressive Bits/(Pixel*Frame) : 0.125 Stream size : 2.18 GiB (92%) Language : English Audio ID : 4352 (0x1100) Menu ID : 1 (0x1) Format : MPEG Audio Format version : Version 1 Format profile : Layer 2 Codec ID : 4 Duration : 47mn 55s Bit rate mode : Constant Bit rate : 192 Kbps Channel(s) : 2 channels Sampling rate : 48.0 KHz Compression mode : Lossy Stream size : 65.8 MiB (3%)
Релиз от:

Всего файлов в раздаче: 4 
01.Хамелеон.s01.E01.(2023).HDTV.(1080р).by.Nicodem.Files-x.ts2.36 GB
02.Хамелеон.s01.E02.(2023).HDTV.(1080р).by.Nicodem.Files-x.ts2.38 GB
03.Хамелеон.s01.E03.(2023).HDTV.(1080р).by.Nicodem.Files-x.ts2.36 GB
04.Хамелеон.s01.E04.(2023).HDTV.(1080р).by.Nicodem.Files-x.ts2.40 GB

Похожие раздачи по запросу - Хамелеон
2024-02-04 magnet Хамелеон [01-04 из 04] (2023) WEBRip от Generalfilm | КПК 737.19 MB ↑ 0 ↓ 0
2024-01-29 magnet Хамелеон [01-04 из 04] (2024) WEBRip от Files-х 2.43 GB ↑ 0 ↓ 0
2024-01-29 magnet Хамелеон / Серии: 1-4 из 4 [2023, боевик, детектив, комедия, HDTVRip-AVC] от Aleksan55 2.40 GB ↑ 1 ↓ 0
2024-01-29 magnet Хамелеон [01-04 из 04 (2023) WEBRip 1080p от ExKinoRay 8.38 GB ↑ 0 ↓ 0
2024-01-29 magnet Хамелеон [01-02 из 04] (2023) WEBRip-AVC от Files-х 2.97 GB ↑ 0 ↓ 0

Комментарии


Зарегистрируйтесь чтобы добавить комментарий
Торрент клиент
byTorrent - программа для загрузки торрент-файлов.

Скачать byTorrent.exe (1,5 МБ)

Скачать byTorrent.zip (0,6 МБ)

Поддержи torrent.by
российских рублей
(300 российских рублей это 4$)

Обратная связь rss

End game ©