↑↓torrent.by
Поиск
Логин:  Регистрация
Пароль:

Инспектор Гаврилов [01-11 из 17] (2023) WEBRip 1080p

download Скачать торрент-файл   magnet Магнитная ссылка Размер: 9.02 GB Добавлен: 2024-01-29 11:00
Пиры будут получены из сети DHT
Последний сидер был замечен 2024-02-29 21:04
Информация о сериале Оригинальное название: Инспектор Гаврилов Год выпуска: 2023 Жанр: Комедия, приключения Режиссер: Кирилл Васильев В ролях: Виктор Добронравов, Екатерина Стулова, Наталья Земцова, Денис Власенко, Андрей Петелько, Омар Алибутаев, Алексей Демидов, Никита Дювбанов, Вадим Ракитин, Михаил Павлик, Наталья Тищенко, Денис Васильев О сериале: В надежде начать новую жизнь рецидивист Саша Медный решается на последнее ограбление. Но все идет не по плану. Скрываясь от преследования на поезде до Владивостока, он присваивает себе имя и форму соседа по купе - майора Гаврилова. Так недавний мошенник становится блюстителем порядка - начальником полиции провинциального Усть-Шахтинска. Насаждая в городе свои порядки, Медный переворачивает обычный уклад российской глубинки. Страна: Россия Студия: Кинокомпания "START" Продолжительность: ~ 00:25:00 Файл Формат: MKV Качество: WEBRip 1080p Видео: MPEG-4 AVC, ~ 4379 Кбит/с, 1920x1080 Аудио: AC3, 2 ch, 256 Кбит/с Язык: Русский Cубтитры: Русские (SDH)
[+] MediaInfo:Общее Уникальный идентификатор : 164948685360463393967149949507964806219 (0x7C17F613F9BCBD1F98133A2A31D8A44B) Полное имя : Inspektor.Gavrilov.S01.E01.WEB-DL.1080p.MrMittens.mkv Формат : Matroska Версия формата : Version 4 Размер файла : 842 Мбайт Продолжительность : 25 м. 22 с. Общий поток : 4 637 Кбит/сек Частота кадров : 25,000 кадров/сек Дата кодирования : 2024-01-01 21:02:26 UTC Программа кодирования : mkvmerge v81.0 ('Milliontown') 64-bit Библиотека кодирования : libebml v1.4.4 + libmatroska v1.7.1 Видео Идентификатор : 1 Формат : AVC Формат/Информация : Advanced Video Codec Профиль формата : High@L4 Настройки формата : CABAC / 4 Ref Frames Параметр CABAC формата : Да Параметр RefFrames формата : 4 кадра Идентификатор кодека : V_MPEG4/ISO/AVC Продолжительность : 25 м. 22 с. Битрейт : 4 379 Кбит/сек Номинальный битрейт : 5 000 Кбит/сек Ширина : 1 920 пикселей Высота : 1 080 пикселей Соотношение сторон : 16:9 Режим частоты кадров : Постоянный Частота кадров : 25,000 кадров/сек Цветовое пространство : YUV Субдискретизация насыщенности : 4:2:0 Битовая глубина : 8 бит Тип развёртки : Прогрессивная Бит/(Пиксели*Кадры) : 0.084 Размер потока : 795 Мбайт (94%) Библиотека кодирования : x264 core 164 Настройки программы : cabac=1 / ref=2 / deblock=1:0:0 / analyse=0x3:0x113 / me=hex / subme=6 / psy=1 / psy_rd=1.00:0.00 / mixed_ref=1 / me_range=16 / chroma_me=1 / trellis=1 / 8x8dct=1 / cqm=0 / deadzone=21,11 / fast_pskip=1 / chroma_qp_offset=-2 / threads=34 / lookahead_threads=5 / sliced_threads=0 / nr=0 / decimate=1 / interlaced=0 / bluray_compat=0 / constrained_intra=0 / bframes=3 / b_pyramid=2 / b_adapt=1 / b_bias=0 / direct=1 / weightb=1 / open_gop=0 / weightp=1 / keyint=250 / keyint_min=25 / scenecut=40 / intra_refresh=0 / rc_lookahead=30 / rc=cbr / mbtree=1 / bitrate=5000 / ratetol=1.0 / qcomp=0.60 / qpmin=0 / qpmax=69 / qpstep=4 / vbv_maxrate=5000 / vbv_bufsize=6500 / nal_hrd=none / filler=0 / ip_ratio=1.40 / aq=1:1.00 Язык : Russian Default : Да Forced : Нет Цветовой диапазон : Limited Основные цвета : BT.709 Характеристики трансфера : BT.709 Коэффициенты матрицы : BT.709 Аудио Идентификатор : 2 Формат : AC-3 Формат/Информация : Audio Coding 3 Коммерческое название : Dolby Digital Идентификатор кодека : A_AC3 Продолжительность : 25 м. 22 с. Вид битрейта : Постоянный Битрейт : 256 Кбит/сек Каналы : 2 канала Channel layout : L R Частота : 48,0 КГц Частота кадров : 31,250 кадров/сек (1536 SPF) Метод сжатия : С потерями Задержка видео : -80 мс. Размер потока : 46,5 Мбайт (6%) Язык : Russian Service kind : Complete Main Default : Да Forced : Нет
[+] Скриншоты

Всего файлов в раздаче: 16 
Inspektor.Gavrilov.S01.E01.WEB-DL.1080p.MrMittens.SDH.srt30.62 kB
Inspektor.Gavrilov.S01.E01.WEB-DL.1080p.MrMittens.mkv841.56 MB
Inspektor.Gavrilov.S01.E02.WEB-DL.1080p.MrMittens.SDH.srt32.16 kB
Inspektor.Gavrilov.S01.E02.WEB-DL.1080p.MrMittens.mkv888.82 MB
Inspektor.Gavrilov.S01.E03.WEB-DL.1080p.MrMittens.SDH.srt33.57 kB
Inspektor.Gavrilov.S01.E03.WEB-DL.1080p.MrMittens.mkv867.28 MB
Inspektor.Gavrilov.S01.E04.WEB-DL.1080p.MrMittens.SDH.srt33.20 kB
Inspektor.Gavrilov.S01.E04.WEB-DL.1080p.MrMittens.mkv829.85 MB
Inspektor.Gavrilov.S01.E05.WEB-DL.1080p.MrMittens.SDH.srt28.81 kB
Inspektor.Gavrilov.S01.E05.WEB-DL.1080p.MrMittens.mkv866.94 MB
Показать все файлы

Похожие раздачи по запросу - Инспектор
2024-02-13 magnet Инспектор Гаврилов [01-15 из 17] (2023) WEBRip-AVC от Generalfilm | КПК 1.58 GB ↑ 0 ↓ 0
2024-02-12 magnet Инспектор Гаврилов [01-15 из 17] (2023) WEBRip-AVC от Files-х 4.46 GB ↑ 0 ↓ 0
2024-02-12 magnet Инспектор Гаврилов [01-15 из 17] (2023) WEBRip 2160p | 4K | SDR 47.99 GB ↑ 0 ↓ 0
2024-02-12 magnet Инспектор Гаврилов [01-15 из 17] (2023) WEBRip 4.77 GB ↑ 0 ↓ 0
2024-02-12 magnet Инспектор Гаврилов [01-15 из 17] (2023) WEBRip 1080p 12.30 GB ↑ 0 ↓ 0
2024-02-10 magnet Инспектор Гаврилов [01-14 из 17] (2023) WEBRip-AVC от Generalfilm | КПК 1.47 GB ↑ 0 ↓ 0
2024-02-10 magnet Инспектор Гаврилов [01-14 из 17] (2023) WEBRip 2160p | 4K | SDR 44.75 GB ↑ 0 ↓ 0

Комментарии


Зарегистрируйтесь чтобы добавить комментарий
Торрент клиент
byTorrent - программа для загрузки торрент-файлов.

Скачать byTorrent.exe (1,5 МБ)

Скачать byTorrent.zip (0,6 МБ)

Поддержи torrent.by
российских рублей
(300 российских рублей это 4$)

Обратная связь rss

End game ©