↑↓torrent.by
Поиск
Логин:  Регистрация
Пароль:

Воздушное ограбление / Lift (2024) WEB-DL-HEVC 2160p | 4K | SDR | P2, L

download Скачать торрент-файл   magnet Магнитная ссылка Размер: 10.33 GB Добавлен: 2024-01-29 17:00
Пиры будут получены из сети DHT
Последний сидер был замечен 2024-02-08 15:08
Информация о фильме Название: Воздушное ограбление Оригинальное название: Lift Год выпуска: 2024 Жанр: боевик, комедия, криминал Режиссер: Ф. Гэри Грей / F. Gary Gray В ролях: Кевин Харт, Гугу Мбата-Роу, Винсент Д'Онофрио, Урсула Корберо, Билли Магнуссен, Жан Рено, Сэм Уортингтон, Бёрн Горман, Вайвек Калра, Джейкоб Баталон, Кэролайн Лонк, Пол Андерсон, Росс Андерсон, Жесс Лиоден, Алфредо Таварес О фильме: Сайрус — профессиональный вор, вместе со своей международной командой проворачивающий самые невероятные и сложные аферы. Его бывшая девушка теперь работает в ФБР и могла бы с легкостью арестовать Сайруса, но к его удивлению… официально просит его совершить ограбление. Вместе они должны украсть золотые слитки на сумму 100 миллионов долларов прямиком из самолета, направляющегося из Лондона в Цюрих, находясь в полете. Только так они смогут предотвратить готовящуюся террористическую атаку. «Воздушное ограбление» (2024) — криминальный боевик с Кевином Хартом, Гугу Эмбата-Ро, Сэмом Уортингтоном, Жаном Рено и Винсентом Д’Онофрио. Выпущено: США, 6th & Idaho Productions, Genre Pictures, Hartbeat Productions, Marzano Films Продолжительность: 01:46:43 Перевод 1: Любительский (многоголосый, закадровый) | TOKSIN Перевод 2: Профессиональный (двухголосый, закадровый) | ViruseProject Субтитры: Русские (Forced, Full), Английские (Full, SDH) Файл Формат: Matroska Качество: WEB-DL-HEVC 2160p | 4K | SDR Видео: HEVC/H.265, 3840x2160, ~11.5 Mbps, 10 бит Аудио #1: AC3, 6 ch, 640 Kbps - Русский (MVO, TOKSiN) Аудио #2: AC3, 6 ch, 640 Kbps - Русский (DVO, ViruseProject) Аудио #3: E-AC-3 JOC, 6 ch, 768 Kbps - Английский (Оригинал) Формат субтитров: softsub (SRT)
[+] M/IОбщее Уникальный идентификатор : 252153438206433466354705393617818175279 (0xBDB2FC584A35A58CBC43E0D24969472F) Полное имя : D:Lift.2024.WEB-DL.2160p.SDR .NNMClub.mkv Формат : Matroska Версия формата : Version 4 Размер файла : 10,3 Гбайт Продолжительность : 1 ч. 46 м. Общий поток : 13,9 Мбит/сек Дата кодирования : UTC 2024-01-29 05:13:51 Программа кодирования : mkvmerge v6.9.1 ('Blue Panther') 32bit built on Apr 18 2014 18:15:44 Библиотека кодирования : libebml v1.3.0 + libmatroska v1.4.1 Видео Идентификатор : 1 Формат : HEVC Формат/Информация : High Efficiency Video Coding Профиль формата : Main 10@L5@Main Идентификатор кодека : V_MPEGH/ISO/HEVC Продолжительность : 1 ч. 46 м. Битрейт : 11,5 Мбит/сек Ширина : 3 840 пикселей Высота : 2 160 пикселей Соотношение сторон : 16:9 Режим частоты кадров : Постоянный Частота кадров : 24,000 кадра/сек Цветовое пространство : YUV Субдискретизация насыщенности : 4:2:0 Битовая глубина : 10 бит Бит/(Пиксели*Кадры) : 0.058 Размер потока : 8,60 Гбайт (83%) Язык : English Default : Да Forced : Нет Цветовой диапазон : Limited Основные цвета : BT.709 Характеристики трансфера : BT.709 Коэффициенты матрицы : BT.709 Аудио #1 Идентификатор : 2 Формат : AC-3 Формат/Информация : Audio Coding 3 Коммерческое название : Dolby Digital Идентификатор кодека : A_AC3 Продолжительность : 1 ч. 46 м. Вид битрейта : Постоянный Битрейт : 640 Кбит/сек Каналы : 6 каналов Channel layout : L R C LFE Ls Rs Частота : 48,0 КГц Частота кадров : 31,250 кадров/сек (1536 SPF) Метод сжатия : С потерями Размер потока : 489 Мбайт (5%) Заголовок : MVO - TOKSiN Язык : Russian Service kind : Complete Main Default : Да Forced : Нет Аудио #2 Идентификатор : 3 Формат : AC-3 Формат/Информация : Audio Coding 3 Коммерческое название : Dolby Digital Идентификатор кодека : A_AC3 Продолжительность : 1 ч. 46 м. Вид битрейта : Постоянный Битрейт : 640 Кбит/сек Каналы : 6 каналов Channel layout : L R C LFE Ls Rs Частота : 48,0 КГц Частота кадров : 31,250 кадров/сек (1536 SPF) Метод сжатия : С потерями Размер потока : 489 Мбайт (5%) Заголовок : DVO - ViruseProject Язык : Russian Service kind : Complete Main Default : Нет Forced : Нет Аудио #3 Идентификатор : 4 Формат : E-AC-3 JOC Формат/Информация : Enhanced AC-3 with Joint Object Coding Коммерческое название : Dolby Digital Plus with Dolby Atmos Идентификатор кодека : A_EAC3 Продолжительность : 1 ч. 46 м. Вид битрейта : Постоянный Битрейт : 768 Кбит/сек Каналы : 6 каналов Channel layout : L R C LFE Ls Rs Частота : 48,0 КГц Частота кадров : 31,250 кадров/сек (1536 SPF) Метод сжатия : С потерями Размер потока : 586 Мбайт (6%) Заголовок : Оригинал Язык : English Service kind : Complete Main Default : Нет Forced : Нет Complexity index : 16 Number of dynamic objects : 15 Bed channel count : 1 канал Bed channel configuration : LFE Текст #1 Идентификатор : 5 Формат : UTF-8 Идентификатор кодека : S_TEXT/UTF8 Идентификатор кодека/Информация : UTF-8 Plain Text Заголовок : forced Язык : Russian Default : Да Forced : Нет Текст #2 Идентификатор : 6 Формат : UTF-8 Идентификатор кодека : S_TEXT/UTF8 Идентификатор кодека/Информация : UTF-8 Plain Text Заголовок : Full Язык : Russian Default : Нет Forced : Нет Текст #3 Идентификатор : 7 Формат : UTF-8 Идентификатор кодека : S_TEXT/UTF8 Идентификатор кодека/Информация : UTF-8 Plain Text Заголовок : Forced Язык : English Default : Нет Forced : Нет Текст #4 Идентификатор : 8 Формат : UTF-8 Идентификатор кодека : S_TEXT/UTF8 Идентификатор кодека/Информация : UTF-8 Plain Text Заголовок : Full Язык : English Default : Нет Forced : Нет Текст #5 Идентификатор : 9 Формат : UTF-8 Идентификатор кодека : S_TEXT/UTF8 Идентификатор кодека/Информация : UTF-8 Plain Text Заголовок : SDH Язык : English Default : Нет Forced : Нет Меню #1 00:00:00.000 : en:Part 01 01:35:47.000 : en:Credits Меню #2 01:35:48.000 : en:End Credits

Всего файлов в раздаче: 1 
Lift.2024.WEB-DL.2160p.SDR .NNMClub.mkv10.33 GB

Похожие раздачи по запросу - Воздушное
2024-02-10 magnet Воздушное ограбление / Lift (2024) WEB-DLRip-AVC от ExKinoRay | D 745.16 MB ↑ 0 ↓ 0
2024-02-09 magnet Воздушное ограбление / Lift (2024) WEB-DLRip 720p от DoMiNo & селезень | D, P2 2.89 GB ↑ 0 ↓ 0
2024-02-09 magnet Воздушное ограбление / Lift (2024) WEB-DL-HEVC 2160p | 4K | SDR | D 10.33 GB ↑ 0 ↓ 0
2024-02-09 magnet Воздушное ограбление / Lift (2024) WEB-DL 720p от ExKinoRay | D 2.35 GB ↑ 1 ↓ 0
2024-02-09 magnet Воздушное ограбление / Lift (2024) WEB-DLRip от MegaPeer | D | Red Head Sound 1.46 GB ↑ 0 ↓ 0
2024-02-09 magnet Воздушное ограбление / Lift (2024) WEB-DL 2160p | 4K | HDR | D | Condor Films Studio 19.20 GB ↑ 0 ↓ 0
2024-02-09 magnet Воздушное ограбление / Lift (2024) WEB-DL 1080p от Scarabey | D | Red Head Sound 4.69 GB ↑ 0 ↓ 0

Комментарии


Зарегистрируйтесь чтобы добавить комментарий
Торрент клиент
byTorrent - программа для загрузки торрент-файлов.

Скачать byTorrent.exe (1,5 МБ)

Скачать byTorrent.zip (0,6 МБ)

Поддержи torrent.by
российских рублей
(300 российских рублей это 4$)

Обратная связь rss

End game ©