↑↓torrent.by
Поиск
Логин:  Регистрация
Пароль:

Грисельда / Griselda [S01] (2024) WEB-DLRip-AVC от DoMiNo & селезень | P | HDRezka Studio

download Скачать торрент-файл   magnet Магнитная ссылка Размер: 4.79 GB Добавлен: 2024-01-29 17:00
Пиры будут получены из сети DHT
Последний сидер был замечен вчера в 07:36
Информация о сериале Название: Грисельда Оригинальное название: Griselda Год выхода: 2024 Жанр: Криминал, биография, драма Режиссер: Андрес Байс В ролях: София Вергара, Альберто Герра, Мартин Родригес, Орландо Пинеда, Мартин Фахардо, Ванесса Ферлито, Фреди Йэт О сериале: История колумбийской наркобаронессы Грисельды Бланко, которой удалось создать один из самых прибыльных картелей в истории. Страна: США Студия: Grand Electric, Latin World Entertainment (LWE) Продолжительность: ~00:50:00 серия Перевод: Профессиональный (многоголосый закадровый) | HDRezka Studio Субтитры: Русские (Forced, Full), английские (Full, SDH) Файл Формат: Matroska Качество: WEB-DLRip-AVC Видео: 956x576 at 23.976 fps, x264@L4.1, ~1790 kbps Аудио 1: AAC, 2 ch, ~96 kbps - | Русский | | HDRezka Studio Аудио 2: AAC, 2 ch, ~96 kbps - | Русский | | HDRezka Studio 18+ Формат субтитров: softsub (SRT) ***Рип от: -=DoMiNo=-
[+] M/Ix264 : frame I:531 Avg QP:16.01 size: 47738 x264 : frame P:11185 Avg QP:18.94 size: 24984 x264 : frame B:62976 Avg QP:20.08 size: 6231 x264 : consecutive B-frames: 1.1% 0.6% 1.9% 7.3% 7.6% 41.5% 3.8% 0.8% 1.6% 4.1% 3.2% 0.5% 4.8% 15.7% 0.9% 0.8% 3.8% General Unique ID : 222761385143045778252964842729251935189 (0xA796483EEA6986787E88C9382ADE13D5) Complete name : E:Griselda..2024.HDR.WEB-DLRip.x264.seleZenGriselda.S01E01.2024.WEB-DLRip.x264.seleZen.mkv Format : Matroska Format version : Version 4 File size : 736 MiB Duration : 51 min 55 s Overall bit rate : 1 982 kb/s Frame rate : 23.976 FPS Movie name : Griselda.S01E01.2024.WEB-DLRip.x264.seleZen Encoded date : 2024-01-26 14:27:47 UTC Writing application : mkvmerge v82.0 ('I'm The President') 64-bit Writing library : libebml v1.4.5 + libmatroska v1.7.1 Cover : Yes Attachments : cover.jpg / small_cover.jpg Video ID : 1 Format : AVC Format/Info : Advanced Video Codec Format profile : High@L4.1 Format settings : CABAC / 10 Ref Frames Format settings, CABAC : Yes Format settings, Reference : 10 frames Codec ID : V_MPEG4/ISO/AVC Duration : 51 min 55 s Bit rate : 1 790 kb/s Width : 956 pixels Height : 576 pixels Display aspect ratio : 5:3 Frame rate mode : Constant Frame rate : 23.976 (24000/1001) FPS Color space : YUV Chroma subsampling : 4:2:0 Bit depth : 8 bits Scan type : Progressive Bits/(Pixel*Frame) : 0.136 Stream size : 665 MiB (90%) Title : -=DoMiNo=- Writing library : x264 core 164 r3173 -DoMiNo Encoding settings : cabac=1 / ref=10 / deblock=1:-2:-1 / analyse=0x3:0x133 / me=umh / subme=10 / psy=1 / psy_rd=1.00:0.15 / mixed_ref=1 / me_range=32 / chroma_me=1 / trellis=2 / 8x8dct=1 / cqm=0 / deadzone=21,11 / fast_pskip=0 / chroma_qp_offset=-3 / threads=17 / lookahead_threads=4 / sliced_threads=0 / nr=0 / decimate=0 / interlaced=0 / bluray_compat=0 / constrained_intra=0 / bframes=16 / b_pyramid=2 / b_adapt=2 / b_bias=0 / direct=1 / weightb=1 / open_gop=0 / weightp=2 / keyint=250 / keyint_min=23 / scenecut=40 / intra_refresh=0 / rc_lookahead=60 / rc=crf / mbtree=0 / crf=19.5 / qcomp=0.60 / qpmin=0 / qpmax=69 / qpstep=4 / vbv_maxrate=50000 / vbv_bufsize=62500 / crf_max=0.0 / nal_hrd=none / filler=0 / ip_ratio=1.35 / pb_ratio=1.30 / aq=1:0.90 Language : English Default : Yes Forced : No Audio #1 ID : 2 Format : AAC LC SBR Format/Info : Advanced Audio Codec Low Complexity with Spectral Band Replication Commercial name : HE-AAC Format settings : Explicit Codec ID : A_AAC-2 Duration : 51 min 41 s Bit rate : 96.0 kb/s Channel(s) : 2 channels Channel layout : L R Sampling rate : 48.0 kHz Frame rate : 23.438 FPS (2048 SPF) Compression mode : Lossy Stream size : 35.0 MiB (5%) Title : HDRezka Studio Language : Russian Default : Yes Forced : No Audio #2 ID : 3 Format : AAC LC SBR Format/Info : Advanced Audio Codec Low Complexity with Spectral Band Replication Commercial name : HE-AAC Format settings : Explicit Codec ID : A_AAC-2 Duration : 51 min 41 s Bit rate : 96.0 kb/s Channel(s) : 2 channels Channel layout : L R Sampling rate : 48.0 kHz Frame rate : 23.438 FPS (2048 SPF) Compression mode : Lossy Stream size : 35.0 MiB (5%) Title : HDRezka Studio 18+ Language : Russian Default : No Forced : No Text #1 ID : 4 Format : UTF-8 Codec ID : S_TEXT/UTF8 Codec ID/Info : UTF-8 Plain Text Duration : 35 min 14 s Bit rate : 1 b/s Frame rate : 0.005 FPS Count of elements : 11 Stream size : 498 Bytes (0%) Title : Russian Forced Language : Russian Default : No Forced : No Text #2 ID : 5 Format : UTF-8 Codec ID : S_TEXT/UTF8 Codec ID/Info : UTF-8 Plain Text Duration : 49 min 50 s Bit rate : 68 b/s Frame rate : 0.172 FPS Count of elements : 513 Stream size : 25.1 KiB (0%) Title : Russian Full Language : Russian Default : No Forced : No Text #3 ID : 6 Format : UTF-8 Codec ID : S_TEXT/UTF8 Codec ID/Info : UTF-8 Plain Text Duration : 42 min 16 s Bit rate : 16 b/s Frame rate : 0.070 FPS Count of elements : 177 Stream size : 5.23 KiB (0%) Title : English Language : English Default : No Forced : No Text #4 ID : 7 Format : UTF-8 Codec ID : S_TEXT/UTF8 Codec ID/Info : UTF-8 Plain Text Duration : 50 min 5 s Bit rate : 54 b/s Frame rate : 0.224 FPS Count of elements : 674 Stream size : 20.1 KiB (0%) Title : English Language : English Default : No Forced : No
Релиз: Присоединяйся к: Кликай на баннеры.

Всего файлов в раздаче: 6 
Griselda.S01E01.2024.WEB-DLRip.x264.seleZen.mkv736.02 MB
Griselda.S01E02.2024.WEB-DLRip.x264.seleZen.mkv819.20 MB
Griselda.S01E03.2024.WEB-DLRip.x264.seleZen.mkv819.93 MB
Griselda.S01E04.2024.WEB-DLRip.x264.seleZen.mkv870.17 MB
Griselda.S01E05.2024.WEB-DLRip.x264.seleZen.mkv817.30 MB
Griselda.S01E06.2024.WEB-DLRip.x264.seleZen.mkv839.75 MB

Похожие раздачи по запросу - Грисельда
2024-02-05 magnet Грисельда / Griselda [S01] (2024) WEB-DL 1080p | P | Red Head Sound 18.97 GB ↑ 0 ↓ 0
2024-02-04 magnet Грисельда / Griselda [S01] (2024) WEB-DL 1080p от Jaskier | P | Jaskier 19.41 GB ↑ 0 ↓ 0
2024-01-29 magnet Грисельда / Griselda [S01] (2024) WEB-DL 1080p | HDRezka Studio, ColdFilm 21.20 GB ↑ 0 ↓ 0
2024-01-28 magnet Грисельда / Griselda [S01] (2024) WEB-DL 720p | HDrezka Studio 9.21 GB ↑ 0 ↓ 0
2024-01-27 magnet Грисельда / Griselda [01x01-02 из 6] (2024) WEB-DLRip-AVC от DoMiNo & селезень | P | HDRezka Studio 1.52 GB ↑ 0 ↓ 0
2024-01-27 magnet Грисельда / Griselda [01x01 из 6] (2024) WEB-DLRip-AVC от DoMiNo & селезень | P | HDRezka Studio 736.02 MB ↑ 0 ↓ 0
2024-01-26 magnet Грисельда / Griselda [01x01 из 6] (2024) WEB-DL 1080p | P, L | HDRezka Studio, ColdFilm 3.24 GB ↑ 0 ↓ 0

Комментарии


Зарегистрируйтесь чтобы добавить комментарий
Торрент клиент
byTorrent - программа для загрузки торрент-файлов.

Скачать byTorrent.exe (1,5 МБ)

Скачать byTorrent.zip (0,6 МБ)

Поддержи torrent.by
российских рублей
(300 российских рублей это 4$)

Обратная связь rss

End game ©