↑↓torrent.by
Поиск
Логин:  Регистрация
Пароль:

Большой дом [S01] (2023) WEB-DL 1080p от ExKinoRay

download Скачать торрент-файл   magnet Магнитная ссылка Размер: 12.62 GB Раздают: 1 Качают: 0 Добавлен: 2024-01-30 05:00
Пиры будут получены из сети DHT
Последний сидер был замечен сегодня в 22:31
Информация о фильме Название: Большой дом Год выхода: 2023 Жанр: Детектив, история Режиссер: Егор Кончаловский В ролях: Виталий Кищенко, Борис Хвошнянский, Артур Ваха, Никита Волков, Илья Коробко, Карина Разумовская, Евгений Санников, Игорь Угаров, Сергей Шоколов, Алексей Белогорцев, Михаил Титов, Анна Королёва, Божена Жарина, Константин Каримов, Егор Кончаловский, Мария Канунникова, Анна Дулова О фильме: Подполковнику КГБ Михаилу Широкову сообщают, что в Ленинграде замечен его давний враг Александр Строганов по кличке Граф, бывший каратель и диверсант, работавший во время войны на немецкую разведку. При помощи остатков белогвардейского подполья, саботажной группы «Зигзаг» и «крота» в рядах милиции, он должен был осуществить изощренный план по уничтожению города. Задание — взрыв пяти символов революции, главной целью из которых был Большой дом. Юный Михаил Широков, тогда еще оперативный сотрудник НКВД и его учитель старший лейтенант Еремеев, предотвращают эту катастрофу, все заговорщики уничтожены, но Графу Строганову удается уйти. В 1965-ом подполковник Широков проверяет всех Строгановых, ныне проживающих в Ленинграде. Подозрение падает на киномеханика Строганова. И действительно, он и его жена Лора заброшены в СССР американской разведкой. Их цель — похищение крупного физика — ядерщика и вывоз его за границу. Широков и его группа идут по следу. Страна: Россия Студия: Кинокомпания «Спбтвцентр» при поддержке Института развития интернета Перевод: Не требуется Файл Формат: MKV Качество: WEB-DL 1080p Видео: MPEG-4 AVC, ~ 5120 Кбит/с, 1920x1080, 25 кадр/с Аудио: AC3, 2 ch, 256 Кбит/с RUS Продолжительность: 8 ~ 00:45:00 Язык: Русский Субтитры: Русские Реклама: Отсутствует
[+] МИ General Unique ID : 193973215092225048341962787144884028514 (0x91EDE1E0BD92E8768E4E66C1FC540462) Complete name : G:Bolshoj.dom.S01.2023.WEB-DL.1080p.ExKinoRayBolshoj.dom.S01.E01.2023.WEB-DL.1080p.ExKinoRay.mkv Format : Matroska Format version : Version 4 File size : 1.51 GiB Duration : 40 min 13 s Overall bit rate : 5 371 kb/s Encoded date : UTC 2024-01-29 21:24:06 Writing application : mkvmerge v6.9.1 ('Blue Panther') 64bit built on Apr 18 2014 18:23:38 Writing library : libebml v1.3.0 + libmatroska v1.4.1 Video ID : 1 Format : AVC Format/Info : Advanced Video Codec Format profile : High@L4 Format settings : CABAC / 4 Ref Frames Format settings, CABAC : Yes Format settings, Reference frames : 4 frames Codec ID : V_MPEG4/ISO/AVC Duration : 40 min 13 s Bit rate : 5 120 kb/s Width : 1 920 pixels Height : 1 080 pixels Display aspect ratio : 16:9 Frame rate mode : Constant Frame rate : 25.000 FPS Color space : YUV Chroma subsampling : 4:2:0 Bit depth : 8 bits Scan type : Progressive Bits/(Pixel*Frame) : 0.099 Stream size : 1.41 GiB (93%) Writing library : x264 core 152 r2854 e9a5903 Encoding settings : cabac=1 / ref=3 / deblock=1:0:0 / analyse=0x3:0x113 / me=hex / subme=7 / psy=1 / psy_rd=1.00:0.00 / mixed_ref=1 / me_range=16 / chroma_me=1 / trellis=1 / 8x8dct=1 / cqm=0 / deadzone=21,11 / fast_pskip=1 / chroma_qp_offset=-2 / threads=34 / lookahead_threads=5 / sliced_threads=0 / nr=0 / decimate=1 / interlaced=0 / bluray_compat=0 / constrained_intra=0 / bframes=6 / b_pyramid=2 / b_adapt=1 / b_bias=0 / direct=1 / weightb=1 / open_gop=0 / weightp=2 / keyint=50 / keyint_min=26 / scenecut=0 / intra_refresh=0 / rc_lookahead=40 / rc=2pass / mbtree=1 / bitrate=5120 / ratetol=1.0 / qcomp=0.60 / qpmin=0 / qpmax=69 / qpstep=4 / cplxblur=20.0 / qblur=0.5 / vbv_maxrate=7680 / vbv_bufsize=20480 / nal_hrd=none / filler=0 / ip_ratio=1.40 / aq=1:1.00 Language : Russian Default : Yes Forced : No Audio ID : 2 Format : AC-3 Format/Info : Audio Coding 3 Commercial name : Dolby Digital Codec ID : A_AC3 Duration : 40 min 13 s Bit rate mode : Constant Bit rate : 256 kb/s Channel(s) : 2 channels Channel layout : L R Sampling rate : 48.0 kHz Frame rate : 31.250 FPS (1536 SPF) Compression mode : Lossy Stream size : 73.7 MiB (5%) Language : Russian Service kind : Complete Main Default : Yes Forced : No Text ID : 3 Format : UTF-8 Codec ID : S_TEXT/UTF8 Codec ID/Info : UTF-8 Plain Text Language : Russian Default : No Forced : No
[+] Скриншоты
Релиз от:

Всего файлов в раздаче: 8 
Bolshoj.dom.S01.E01.2023.WEB-DL.1080p.ExKinoRay.mkv1.51 GB
Bolshoj.dom.S01.E02.2023.WEB-DL.1080p.ExKinoRay.mkv1.62 GB
Bolshoj.dom.S01.E03.2023.WEB-DL.1080p.ExKinoRay.mkv1.64 GB
Bolshoj.dom.S01.E04.2023.WEB-DL.1080p.ExKinoRay.mkv1.54 GB
Bolshoj.dom.S01.E05.2023.WEB-DL.1080p.ExKinoRay.mkv1.61 GB
Bolshoj.dom.S01.E06.2023.WEB-DL.1080p.ExKinoRay.mkv1.53 GB
Bolshoj.dom.S01.E07.2023.WEB-DL.1080p.ExKinoRay.mkv1.66 GB
Bolshoj.dom.S01.E08.2023.WEB-DL.1080p.ExKinoRay.mkv1.50 GB

Похожие раздачи по запросу - Большой
Сегодня magnet Артист с большой дороги [01 из 08] (2023) WEBRip-AVC от Files-x 616.37 MB ↑ 0 ↓ 0
Сегодня magnet Артист с большой дороги [01-02 из 08] (2023) WEB-DL 1080p 2.80 GB ↑ 0 ↓ 0
Сегодня magnet Артист с большой дороги [01-02 из 08] (2023) WEB-DLRip 1.24 GB ↑ 0 ↓ 0
2024-02-11 magnet Большой куш / Snatch (2000) BDRip | D 1.46 GB ↑ 0 ↓ 0
2024-01-12 magnet Павел Воля. Большой Stand Up [эфир от 12.01] (2024) SATRip 635.13 MB ↑ 0 ↓ 0
2023-12-11 magnet Серия - «Большой роман» [175 книг] (2015-2023) FB2 510.96 MB ↑ 0 ↓ 0
2023-12-01 magnet Серия - «Большой роман» [173 книги] (2015-2023) FB2 508.56 MB ↑ 0 ↓ 0

Комментарии

Demon
Сложный фильм, но смотреть НАДО. Имхо.


Зарегистрируйтесь чтобы добавить комментарий
Торрент клиент
byTorrent - программа для загрузки торрент-файлов.

Скачать byTorrent.exe (1,5 МБ)

Скачать byTorrent.zip (0,6 МБ)

Поддержи torrent.by
российских рублей
(300 российских рублей это 4$)

Обратная связь rss

End game ©