↑↓torrent.by
Поиск
Логин:  Регистрация
Пароль:

Повышая градус [01-10 из 13] (2024) WEBRip 1080p

download Скачать торрент-файл   magnet Магнитная ссылка Размер: 7.69 GB Добавлен: 2024-01-30 05:00
Пиры будут получены из сети DHT
Последний сидер был замечен 2024-02-12 17:29
Информация о фильме Оригинальное название: Повышая градус Год выпуска: 2024 Жанр: Комедия Выпущено: Россия, БигСкринПродакшн Режиссер: Георгий Малков, Максим Максимов (V) В ролях: Ольга Тумайкина, Анна Уколова, Катерина Ковальчук, Павел Ворожцов, Вячеслав Чепурченко, Евгений Егоров, Кирилл Каганович, Андрей Пынзару, Тереза Диуро, Микаэль Амирханов, Георгий Малявский Описание: Провинциальный ликеро-водочный завод «перешел» новым московским собственникам. На место заключенного под домашний арест старого директора ЛВЗ пришел молодой амбициозный Владимир. В первый же день он устанавливает свои порядки и избавляется от всего старого. А именно, увольняет старую секретаршу Дину, которая была душой коллектива, дерзкую техника-наладчика конвейера Иру и слишком требовательного к нормам качества молодого технолога Татьяну. Отчаявшись найти другую работу в своем городке, эти три женщины, выброшенные с родного завода, решают сделать свой собственный. Продолжительность: ~ 00:24:00 Язык: Русский Субтитры: нет Файл Формат: MKV Качество: WEBRip 1080p - MrMittens Видео: MPEG-4 AVC, ~ 4500 Кбит/с, 1920x1072 Аудио: AC3, 2 ch, 192 Кбит/с
[+] MIGeneral Unique ID : 206588567678435012524608456943270404645 (0x9B6B82C81D2C7CF42867AE218FF0A225) Complete name : W:Povyshaya.gradus.S01.WEB-DL.1080p.MrMittensPovyshaya.gradus.S01.E01.WEB-DL.1080p.MrMittens.mkv Format : Matroska Format version : Version 4 / Version 2 File size : 822 MiB Duration : 24 min 41 s Overall bit rate mode : Variable Overall bit rate : 4 654 kb/s Encoded date : UTC 2024-01-22 17:31:01 Writing application : mkvmerge v43.0.0 ('The Quartermaster') 64-bit Writing library : libebml v1.3.10 + libmatroska v1.5.2 Video ID : 1 Format : AVC Format/Info : Advanced Video Codec Format profile : High@L4.1 Format settings : CABAC / 4 Ref Frames Format settings, CABAC : Yes Format settings, ReFrames : 4 frames Codec ID : V_MPEG4/ISO/AVC Duration : 24 min 41 s Bit rate mode : Variable Bit rate : 4 500 kb/s Width : 1 920 pixels Height : 1 072 pixels Display aspect ratio : 16:9 Frame rate mode : Constant Frame rate : 25.000 FPS Color space : YUV Chroma subsampling : 4:2:0 Bit depth : 8 bits Scan type : Progressive Bits/(Pixel*Frame) : 0.087 Stream size : 788 MiB (96%) Language : English Default : Yes Forced : No Color range : Limited Color primaries : BT.709 Transfer characteristics : BT.709 Matrix coefficients : BT.709 Audio ID : 2 Format : AC-3 Format/Info : Audio Coding 3 Codec ID : A_AC3 Duration : 24 min 41 s Bit rate mode : Constant Bit rate : 192 kb/s Channel(s) : 2 channels Channel positions : Front: L R Sampling rate : 48.0 kHz Frame rate : 31.250 FPS (1536 SPF) Bit depth : 16 bits Compression mode : Lossy Stream size : 33.9 MiB (4%) Language : Russian Service kind : Complete Main Default : Yes Forced : No
[+] Скриншоты

Всего файлов в раздаче: 10 
Povyshaya.gradus.S01.E01.WEB-DL.1080p.MrMittens.mkv822.19 MB
Povyshaya.gradus.S01.E02.WEB-DL.1080p.MrMittens.mkv780.89 MB
Povyshaya.gradus.S01.E03.WEB-DL.1080p.MrMittens.mkv749.91 MB
Povyshaya.gradus.S01.E04.WEB-DL.1080p.MrMittens.mkv802.31 MB
Povyshaya.gradus.S01.E05.WEB-DL.1080p.MrMittens.mkv772.40 MB
Povyshaya.gradus.S01.E06.WEB-DL.1080p.MrMittens.mkv807.17 MB
Povyshaya.gradus.S01.E07.WEB-DL.1080p.MrMittens.mkv815.94 MB
Povyshaya.gradus.S01.E08.WEB-DL.1080p.MrMittens.mkv772.89 MB
Povyshaya.gradus.S01.E09.WEB-DL.1080p.MrMittens.mkv759.26 MB
Povyshaya.gradus.S01.E10.WEB-DL.1080p.MrMittens.mkv787.99 MB

Похожие раздачи по запросу - Повышая
2024-02-02 magnet Повышая градус [S01] (2024) WEBRip-AVC от Generalfilm | КПК 1.36 GB ↑ 0 ↓ 0
2024-02-01 magnet Повышая градус [01-13 из 13] (2024) WEBRip от Files-х 3.85 GB ↑ 0 ↓ 0
2024-01-31 magnet Повышая градус [S01] (2024) WEBRip 1080p 2К10.00 GB ↑ 0 ↓ 0
2024-01-31 magnet Повышая градус [S01] (2024) WEBRip-AVC от Files-х 1К3.84 GB ↑ 0 ↓ 0
2024-01-31 magnet Повышая градус [01-13 из 13] (2024) WEBRip 720p от Files-х 6.79 GB ↑ 0 ↓ 0
2024-01-30 magnet Повышая градус [01-10 из 13] (2024) WEBRip-AVC от Files-х 1К2.95 GB ↑ 0 ↓ 0
2024-01-28 magnet Повышая градус [01-08 из 13] (2024) WEBRip-AVC от Generalfilm | КПК 860.05 MB ↑ 0 ↓ 0

Комментарии

DeathGun
Юмора нет совсем. Абсолютно пустой сериал. Не рекомендую. Раздающему спасибо!

MaximDtattoo
Типичный быдлосериал от тнт, хабалки актрисы раздражают, юмор уровня кривого зеркала ну то есть его нет. Глубинка показана клишировано, пьянство нищета и чернуха...простите, это вообще комедия? Две серии осилил и удалил. Оценка только за труды, а на это лучше не тратить время.

boomitsboom
Тот случай, когда ты самогонщик со стажем и понимаешь что спирт альфа получить на таком деревенском корыте невозможно :)


Зарегистрируйтесь чтобы добавить комментарий
Торрент клиент
byTorrent - программа для загрузки торрент-файлов.

Скачать byTorrent.exe (1,5 МБ)

Скачать byTorrent.zip (0,6 МБ)

Поддержи torrent.by
российских рублей
(300 российских рублей это 4$)

Обратная связь rss

End game ©