↑↓torrent.by
Поиск
Логин:  Регистрация
Пароль:

Моя морячка (1990) WEBRip 1080p

download Скачать торрент-файл   magnet Магнитная ссылка Размер: 2.78 GB Добавлен: 2024-01-30 17:00
Пиры будут получены из сети DHT
Последний сидер был замечен 2024-02-02 08:38
Информация о фильме Оригинальное название: Моя морячка Год выпуска: 1990 Жанр: мюзикл, комедия Выпущено: СССР / Одеон Режиссер: Анатолий Эйрамджан В ролях: Людмила Гурченко, Татьяна Васильева, Михаил Державин, Любовь Полищук, Роман Рязанцев, Анастасия Немоляева, Георгий Мартиросян, Роксана Бабаян, Е. Дубовик, Ю. Гонигман Описание: В небольшом южном городке, в парке культуры и отдыха, каждый день массовик-затейник Людмила Пашкова проводит свое коронное мероприятие - конкурс «Где вы, таланты?!». И ни разу никто не спорил с ней по поводу приза. Но вот появляется некто Гудков из Мурманска и, спев песню «Моя морячка», которая тут же становится шлягером, требует себе главный приз за талант… Продолжительность: 01:15:35 Субтитры: Отсутствуют Файл Формат: MKV Качество: WEBRip 1080p Видео: AVC/H.264, 1920x1080, ~5000 Kbps Аудио: E-AC3, 2 ch, 256 Kbps - Русский Релиз от: karfagen1975
[+] MediaInfo:General Unique ID : 23528077134553146062544675499422711117 (0x11B357C39FA28E35259ED98E176AFD4D) Complete name : Моя морячка (1990) WEB-DL 1080p.mkv Format : Matroska Format version : Version 4 File size : 2.78 GiB Duration : 1 h 15 min Overall bit rate : 5 259 kb/s Frame rate : 30.000 FPS Encoded date : 2024-01-29 14:52:52 UTC Writing application : mkvmerge v75.0.0 ('Goliath') 64-bit Writing library : libebml v1.4.4 + libmatroska v1.7.1 Video ID : 1 Format : AVC Format/Info : Advanced Video Codec Format profile : High@L4 Format settings : CABAC / 3 Ref Frames Format settings, CABAC : Yes Format settings, Reference frames : 3 frames Codec ID : V_MPEG4/ISO/AVC Duration : 1 h 15 min Bit rate : 5 000 kb/s Width : 1 920 pixels Height : 1 080 pixels Display aspect ratio : 16:9 Frame rate mode : Constant Frame rate : 30.000 FPS Color space : YUV Chroma subsampling : 4:2:0 Bit depth : 8 bits Scan type : Progressive Bits/(Pixel*Frame) : 0.080 Stream size : 2.64 GiB (95%) Title : Моя морячка (1990) WEB-DL 1080p Writing library : x264 core 164 r3095 baee400 Encoding settings : cabac=1 / ref=4 / deblock=1:-1:-1 / analyse=0x3:0x133 / me=umh / subme=9 / psy=1 / psy_rd=0.40:1.00 / mixed_ref=1 / me_range=24 / chroma_me=1 / trellis=0 / 8x8dct=1 / cqm=0 / deadzone=21,11 / fast_pskip=1 / chroma_qp_offset=-2 / threads=3 / lookahead_threads=1 / sliced_threads=0 / nr=0 / decimate=1 / interlaced=0 / bluray_compat=0 / stitchable=1 / constrained_intra=0 / bframes=8 / b_pyramid=1 / b_adapt=0 / b_bias=0 / direct=3 / weightb=1 / open_gop=0 / weightp=2 / keyint=90 / keyint_min=46 / scenecut=0 / intra_refresh=0 / rc_lookahead=40 / rc=2pass / mbtree=1 / bitrate=5000 / ratetol=1.0 / qcomp=0.80 / qpmin=1 / qpmax=69 / qpstep=4 / cplxblur=20.0 / qblur=0.5 / vbv_maxrate=7500 / vbv_bufsize=10000 / nal_hrd=none / filler=0 / ip_ratio=1.40 / aq=1:1.00 Language : Russian Default : Yes Forced : No Color range : Limited Color primaries : BT.709 Transfer characteristics : BT.709 Matrix coefficients : BT.709 Audio ID : 2 Format : E-AC-3 Format/Info : Enhanced AC-3 Commercial name : Dolby Digital Plus Codec ID : A_EAC3 Duration : 1 h 15 min Bit rate mode : Constant Bit rate : 256 kb/s Channel(s) : 2 channels Channel layout : L R Sampling rate : 48.0 kHz Frame rate : 31.250 FPS (1536 SPF) Compression mode : Lossy Stream size : 138 MiB (5%) Language : Russian Service kind : Complete Main Default : Yes Forced : No
[+] Дополнительная информация:По словам актёра Романа Рязанцева: «На съемках была уютная, семейная атмосфера, вот и фильм получился добрый. Эта была первая картина в СССР, снятая всего за десять дней. Мы работали без репетиций». Заключительную часть фильма снимали в Московском цирке.
[+] Скриншоты
[+] Дополнительные скриншоты:

Всего файлов в раздаче: 1 
Моя морячка (1990) WEB-DL 1080p.mkv2.78 GB

Похожие раздачи по запросу - Моя
2024-02-22 magnet Моя большая греческая свадьба 3 / My Big Fat Greek Wedding 3 (2023) HDRip-AVC от DoMiNo & селезень | P 1.53 GB ↑ 0 ↓ 0
2024-02-22 magnet Моя большая греческая свадьба 3 / My Big Fat Greek Wedding 3 (2023) BDRip от New-Team | P 1.46 GB ↑ 0 ↓ 0
2024-02-05 magnet Моя жена – киллер / Role Play (2023) WEB-DLRip от Generalfilm | КПК | D 386.20 MB ↑ 0 ↓ 0
2024-02-03 magnet Моя веселая жизнь / My Life So Far (1999) WEB-DL 1080p | P, A 7.79 GB ↑ 0 ↓ 0
2024-01-08 magnet Андрей Мороз - Музыка моя (2023) MP3 159.97 MB ↑ 0 ↓ 0
2024-01-03 magnet Моя ужасная сестра 2 (2023) WEB-DL 1080p 3.22 GB ↑ 0 ↓ 0
2024-01-03 magnet Моя ужасная сестра 2 (2023) WEB-DLRip от ELEKTRI4KA | IVI 1.37 GB ↑ 0 ↓ 0

Комментарии


Зарегистрируйтесь чтобы добавить комментарий
Торрент клиент
byTorrent - программа для загрузки торрент-файлов.

Скачать byTorrent.exe (1,5 МБ)

Скачать byTorrent.zip (0,6 МБ)

Поддержи torrent.by
российских рублей
(300 российских рублей это 4$)

Обратная связь rss

End game ©