↑↓torrent.by
Поиск
Логин:  Регистрация
Пароль:

Нулевая точка невозврата (2023) HD 720p

download Скачать торрент-файл   magnet Магнитная ссылка Размер: 5.56 GB Добавлен: 2024-01-30 17:00
Пиры будут получены из сети DHT
Последний сидер был замечен 2024-02-03 19:54
Информация о фильме Название: Нулевая точка невозврата Год выхода: 2023 Жанр: артхаус, мистический реализм, драма Режиссер: Franek Monk В ролях: Franek Monk, Bigben О фильме: Что будет, если найти чужую вещь и тайком присвоить её себе? Наверное, ничего особенного. А если это не просто вещь, а нечто, позволяющее перемещаться в пространстве? Тогда уж тем более не захочется с ней расставаться. Ну а если что-то пойдёт не так при эксплуатации, и даже попытки вернуть вещь на место ничем не увенчаются? Тогда уж извините, сами виноваты. Доп. информация: Сценарий, режиссура, монтаж, звук: Franek Monk Съёмка: Franek Monk, Bigben Саундтрек: NTSC, Яма, 10958 Отдельное спасибо Dirty Ho Страна: Россия Продолжительность: 01:38:05 Файл Кодек: AVC Качество: HD 720p Видео: AVC, 1280x720 (16:9), 25.000 fps, 7926 Kbps, 0.344 bit/pixel Аудио: Русский 48.0 KHz, 2 ch, AC-3, 192 kbps
[+] MediaInfo General Unique ID: 196453879330530747896220198213067106275 (0x93CBA411536701A5BD7E2D044AEA67E3) Complete name: Нулевая.точка.невозврата.2023.720p.mkv Format: Matroska Format version: Version 4 / Version 2 File size: 5.56 GiB Duration: 1 h 38 min Overall bit rate: 8 120 kb/s Writing application: mkvmerge v8.9.0 ('Father Daughter') 32bit Writing library: libebml v1.3.3 + libmatroska v1.4.4 Video ID: 1 Format: AVC Format/Info: Advanced Video Codec Format profile: High@L3.1 Format settings, CABAC: Yes Format settings, ReFrames: 4 frames Codec ID: V_MPEG4/ISO/AVC Duration: 1 h 38 min Bit rate: 7 926 kb/s Width: 1 280 pixels Height: 720 pixels Display aspect ratio: 16:9 Frame rate mode: Constant Frame rate: 25.000 FPS Color space: YUV Chroma subsampling: 4:2:0 Bit depth: 8 bits Scan type: Progressive Bits/(Pixel*Frame): 0.344 Stream size: 5.43 GiB (98%) Language: Russian Default: Yes Forced: No Audio ID: 2 Format: AC-3 Format/Info: Audio Coding 3 Format settings, Endianness: Big Codec ID: A_AC3 Duration: 1 h 38 min Bit rate mode: Constant Bit rate: 192 kb/s Channel(s): 2 channels Channel positions: Front: L R Sampling rate: 48.0 kHz Frame rate: 31.250 FPS (1536 spf) Bit depth: 16 bits Compression mode: Lossy Stream size: 135 MiB (2%) Language: Russian Service kind: Complete Main Default: Yes Forced: No
Семпл
[+] Скриншоты
Релиз от: Franek Monk

Всего файлов в раздаче: 1 
Нулевая.точка.невозврата.2023.720p.mkv5.56 GB

Похожие раздачи по запросу - Нулевая
2024-01-26 magnet Нулевая мировая (серии 1-4 из 4) [2016, документальный, исторический, HDTVRip 720p] 5.87 GB ↑ 1 ↓ 0

Комментарии


Зарегистрируйтесь чтобы добавить комментарий
Торрент клиент
byTorrent - программа для загрузки торрент-файлов.

Скачать byTorrent.exe (1,5 МБ)

Скачать byTorrent.zip (0,6 МБ)

Поддержи torrent.by
российских рублей
(300 российских рублей это 4$)

Обратная связь rss

End game ©