↑↓torrent.by
Поиск
Логин:  Регистрация
Пароль:

Пчеловод / The Beekeeper (2024) WEB-DL 1080p от JNS82 | Sub

download Скачать торрент-файл   magnet Магнитная ссылка Размер: 6.85 GB Раздают: 1 Качают: 0 Добавлен: 2024-01-30 17:00
Пиры будут получены из сети DHT
Последний сидер был замечен сегодня в 07:38
Пчеловод / The Beekeeper Год выпуска: 2024 Выпущено: Великобритания, США, Cedar Park Entertainment, Miramax Films Жанр: Боевик, триллер Режиссер: Дэвид Эйр В ролях: Джейсон Стэйтем, Эмми Рэйвер-Лэмпман, Бобби Надери, Джош Хатчерсон, Джереми Айронс, Дэвид Уиттс, Михаэль Эпп, Тейлор Джеймс, Филисия Рашад, Джемма Редгрейв О фильме: Адам Клэй живет в тихом пригороде, занимается разведением пчел и не распространяется о своей прошлой жизни. Пожилая соседка рада, что в их край приехал заинтересованный человек, улучшающий природу и экологию. Пасечник часто общается с милой миссис Паркер, которая однажды становится жертвой финансовых мошенников. Аферисты похищают деньги со всех счетов женщины, и после тяжелого удара пенсионерка сводит счеты с жизнью. Адам решает за нее отомстить. Продолжительность: 01:45:14 Перевод: Субтитры Субтитры: Русские (full (Stirlooo 18+)) английские Автор релиза: JNS82. Формат: MKV Качество: WEB-DL 1080p | AMZN Видео: MPEG-4 AVC, 8764 Кбит/с, 1920x800 Аудио #2: E-AC3, 6 ch, 640 Кбит/с | ENG |
[+] MediaInfoОбщее Уникальный идентификатор : 18094250016042925617738939807336852386 (0xD9CD36726B6049EA4090F2438D96BA2) Полное имя : D:TorrentsThe.Beekeeper.2024.1080p.AMZN_JNS82.mkv Формат : Matroska Версия формата : Version 4 Размер файла : 6,85 Гбайт Продолжительность : 1 ч. 45 м. Общий поток : 9 316 Кбит/сек Название фильма : The.Beekeeper.2024.1080p.AMZN_JNS82 Дата кодирования : UTC 2024-01-30 10:32:42 Программа кодирования : mkvmerge v79.0 ('Funeral Pyres') 64-bit Библиотека кодирования : libebml v1.4.4 + libmatroska v1.7.1 Видео Идентификатор : 1 Формат : AVC Формат/Информация : Advanced Video Codec Профиль формата : High@L4 Настройки формата : CABAC / 4 Ref Frames Параметр CABAC формата : Да Параметр RefFrames формата : 4 кадра Идентификатор кодека : V_MPEG4/ISO/AVC Продолжительность : 1 ч. 45 м. Вид битрейта : Постоянный Битрейт : 8 674 Кбит/сек Номинальный битрейт : 10 000 Кбит/сек Ширина : 1 920 пикселей Высота : 800 пикселей Соотношение сторон : 2,40:1 Режим частоты кадров : Постоянный Частота кадров : 23,976 (24000/1001) кадра/сек Цветовое пространство : YUV Субдискретизация насыщенности : 4:2:0 Битовая глубина : 8 бит Тип развёртки : Прогрессивная Бит/(Пиксели*Кадры) : 0.236 Размер потока : 6,38 Гбайт (93%) Язык : English Default : Да Forced : Нет Цветовой диапазон : Limited Основные цвета : BT.709 Характеристики трансфера : BT.709 Коэффициенты матрицы : BT.709 Аудио Идентификатор : 2 Формат : E-AC-3 Формат/Информация : Enhanced AC-3 Коммерческое название : Dolby Digital Plus Идентификатор кодека : A_EAC3 Продолжительность : 1 ч. 45 м. Вид битрейта : Постоянный Битрейт : 640 Кбит/сек Каналы : 6 каналов Channel layout : L R C LFE Ls Rs Частота : 48,0 КГц Частота кадров : 31,250 кадров/сек (1536 SPF) Метод сжатия : С потерями Размер потока : 482 Мбайт (7%) Язык : English Service kind : Complete Main Default : Да Forced : Нет Текст #1 Идентификатор : 3 Формат : UTF-8 Идентификатор кодека : S_TEXT/UTF8 Идентификатор кодека/Информация : UTF-8 Plain Text Продолжительность : 1 ч. 40 м. Битрейт : 95 бит/сек Count of elements : 1378 Размер потока : 70,2 Кбайт (0%) Заголовок : ] Язык : Russian Default : Да Forced : Нет Текст #2 Идентификатор : 4 Формат : UTF-8 Идентификатор кодека : S_TEXT/UTF8 Идентификатор кодека/Информация : UTF-8 Plain Text Продолжительность : 1 ч. 36 м. Битрейт : 63 бит/сек Count of elements : 1504 Размер потока : 44,5 Кбайт (0%) Язык : English Default : Нет Forced : Нет Текст #3 Идентификатор : 5 Формат : UTF-8 Идентификатор кодека : S_TEXT/UTF8 Идентификатор кодека/Информация : UTF-8 Plain Text Продолжительность : 1 ч. 39 м. Битрейт : 73 бит/сек Count of elements : 1830 Размер потока : 53,3 Кбайт (0%) Заголовок : SDH Язык : English Default : Нет Forced : Нет

Всего файлов в раздаче: 1 
The.Beekeeper.2024.1080p.AMZN_JNS82.mkv6.85 GB

Похожие раздачи по запросу - Пчеловод
2024-02-10 magnet Пчеловод / The Beekeeper (2024) WEB-DL 2160p | 4K | SDR | TVShows, Jaskier, ViruseProject 12.56 GB ↑ 0 ↓ 0
2024-02-09 magnet Пчеловод / The Beekeeper (2024) WEB-DL 1080p от селезень | P, P2 | TVShows, Jaskier, ViruseProject 7.93 GB ↑ 0 ↓ 0
2024-02-03 magnet Пчеловод / The Beekeeper (2024) WEB-DL 2160p | 4K | HDR10+ | Jaskier, ViruseProject 20.10 GB ↑ 0 ↓ 0
2024-02-03 magnet Пчеловод / The Beekeeper (2024) WEB-DL 2160p | 4K | HDR | Dolby Vision Profile 8 | Jaskier, ViruseProject 20.11 GB ↑ 0 ↓ 0
2024-02-03 magnet Пчеловод / The Beekeeper (2024) WEB-DLRip-AVC | КПК | P | Jaskier 525.52 MB ↑ 0 ↓ 0
2024-02-02 magnet Пчеловод / The Beekeeper (2024) WEB-DLRip 720p от DoMiNo & селезень | P, P2 | Jaskier, ViruseProject 3.53 GB ↑ 0 ↓ 0
2024-02-02 magnet Пчеловод / Бджоляр / The Beekeeper (2024) WEB-DL-HEVC 2160p | 4K | HDR | Dolby Vision Profile 8 | D | UKR 19.47 GB ↑ 0 ↓ 0

Комментарии

admin - Администратор
"Запомните одну вещь, пчёлы не тратят своё время, доказывая мухам, что мёд лучше дерьма." © Джейсон Стэйтем


Зарегистрируйтесь чтобы добавить комментарий
Торрент клиент
byTorrent - программа для загрузки торрент-файлов.

Скачать byTorrent.exe (1,5 МБ)

Скачать byTorrent.zip (0,6 МБ)

Поддержи torrent.by
российских рублей
(300 российских рублей это 4$)

Обратная связь rss

End game ©