↑↓torrent.by
Поиск
Логин:  Регистрация
Пароль:

Цветик-Семицветик [1948, СССР, мультфильм, короткометражка, WEBRip 1080p]

download Скачать торрент-файл   magnet Магнитная ссылка Размер: 777.72 MB Добавлен: il68k 2024-01-30 22:50
Пиры будут получены из сети DHT
Последний сидер был замечен 2024-02-20 18:06
Цветик-Семицветик

Год выпуска: 1948 Страна: СССР Киностудия: Жанр: мультфильм, короткометражка Продолжительность: 00:20:15 Перевод: не требуется субтитры: отсутствуют
Режиссёр: Михаил Цехановский Роли озвучивали: Наталья Защипина, Татьяна Барышева, Борис Омехин
Описание: Девочке Жене достаётся волшебный цветок. Семь его лепестков — это семь желаний, которые она может исполнить. Женя не сразу понимает, что она получила в свои руки, и первые шесть её желаний оказываются пустыми и бессмысленными. «Шесть лепестков потратила и никакого удовольствия» — констатирует она. Только последним лепестком она совершает настоящий хороший поступок — помогает мальчику Вите, излечивая его от хромоты, после чего они радосто играют в салки.
релиз:
Качество: WEBRip 1080p Формат: MP4 Видео кодек: AVC Аудио кодек: AAC Видео: 1920x1080, 24 fps, ~5120 kbps, 0.103 bit/pixel Аудио: 48kHz, AAC, 2ch, 256 kbps
[+] Скриншоты
[+] MediaInfo
Код:
Общее Полное имя : D:\Mult\Союзмультфильм1\Цветик-Семицветик.1948.WEBRip 1080p.mp4 Формат : MPEG-4 Профиль формата : Base Media Идентификатор кодека : isom (isom/iso2/avc1/mp41) Размер файла : 778 Мбайт Продолжительность : 20 м. 15 с. Общий поток : 5367 Кбит/сек Программа кодирования : Lavf58.20.100 Видео Идентификатор : 1 Формат : AVC Формат/Информация : Advanced Video Codec Профиль формата : High@L4 Настройки формата : CABAC / 4 Ref Frames Параметр CABAC формата : Да Параметр RefFrames формата : 4 кадра Идентификатор кодека : avc1 Идентификатор кодека/Информация : Advanced Video Coding Продолжительность : 20 м. 15 с. Битрейт : 5120 Кбит/сек Ширина : 1920 пикселей Высота : 1080 пикселей Соотношение сторон : 16:9 Режим частоты кадров : Постоянный Частота кадров : 25,000 кадров/сек Цветовое пространство : YUV Субдискретизация насыщенности : 4:2:0 Битовая глубина : 8 бит Тип развёртки : Прогрессивная Бит/(Пиксели*Кадры) : 0.099 Размер потока : 740 Мбайт (95%) Библиотека кодирования : x264 core 148 Настройки программы : cabac=1 / ref=3 / deblock=1:0:0 / analyse=0x3:0x113 / me=hex / subme=7 / psy=1 / psy_rd=1.00:0.00 / mixed_ref=1 / me_range=16 / chroma_me=1 / trellis=1 / 8x8dct=1 / cqm=0 / deadzone=21,11 / fast_pskip=1 / chroma_qp_offset=-2 / threads=24 / lookahead_threads=4 / sliced_threads=0 / nr=0 / decimate=1 / interlaced=0 / bluray_compat=0 / constrained_intra=0 / bframes=6 / b_pyramid=2 / b_adapt=1 / b_bias=0 / direct=1 / weightb=1 / open_gop=0 / weightp=2 / keyint=50 / keyint_min=26 / scenecut=0 / intra_refresh=0 / rc_lookahead=40 / rc=2pass / mbtree=1 / bitrate=5120 / ratetol=1.0 / qcomp=0.60 / qpmin=0 / qpmax=69 / qpstep=4 / cplxblur=20.0 / qblur=0.5 / vbv_maxrate=7680 / vbv_bufsize=20480 / nal_hrd=none / filler=0 / ip_ratio=1.40 / aq=1:1.00 Язык : English Дата пометки : UTC 2019-12-03 01:17:11 Аудио Идентификатор : 2 Формат : AAC Формат/Информация : Advanced Audio Codec Профиль формата : LC Идентификатор кодека : mp4a-40-2 Продолжительность : 20 м. 15 с. Продолжительность оригинала : 20 м. 15 с. Вид битрейта : Постоянный Битрейт : 256 Кбит/сек Каналы : 2 канала Расположение каналов : Front: L R Частота : 48,0 КГц Частота кадров : 46,875 кадров/сек (1024 SPF) Метод сжатия : С потерями Размер потока : 37,1 Мбайт (5%) Размер потока оригинала : 37,1 Мбайт (5%) Язык : Russian Default : Да AlternateGroup/String : 1 Дата пометки : UTC 2019-12-03 01:17:11

Всего файлов в раздаче: 1 
Цветик-Семицветик.1948.WEBRip 1080p.mp4777.72 MB

Комментарии


Зарегистрируйтесь чтобы добавить комментарий
Торрент клиент
byTorrent - программа для загрузки торрент-файлов.

Скачать byTorrent.exe (1,5 МБ)

Скачать byTorrent.zip (0,6 МБ)

Поддержи torrent.by
российских рублей
(300 российских рублей это 4$)

Обратная связь rss

End game ©