↑↓torrent.by
Поиск
Логин:  Регистрация
Пароль:

Синяя бездна 2 / 47 Meters Down: Uncaged (2019) UHD BDRemux 2160p от селезень | 4K | HDR | D

download Скачать торрент-файл   magnet Магнитная ссылка Размер: 50.80 GB Добавлен: 2024-01-31 05:00
Пиры будут получены из сети DHT
Последний сидер был замечен 2024-01-31 05:00
Информация о фильме Название: Синяя бездна 2 Оригинальное название: 47 Meters Down: Uncaged Год выхода: 2019 Жанр: ужасы Режиссер: Йоханнес Робертс В ролях: Софи Нелисс, Корина Фокс, Бриэнн Тджу, Систин Роуз Сталлоне, Джон Корбетт, Ниа Лонг, Брэк Бэссинджер, Дави Сантос, Кайлин Рамбо, Аксель Мансилла О фильме: Старшеклассница Саша с нетерпением ждала выходных, чтобы оторваться с подругами, но родители наказали ехать вместе со сводной сестрой Мией на водную экскурсию. Решив, что перспектива провести несколько часов на корабле с вредными одноклассницами, которые постоянно задирают Мию, их не прельщает, сёстры с подругами Саши отправляются исследовать подводную пещеру. Но запланированное развлечение вскоре оборачивается кошмаром - в замкнутом пространстве ныряльщицам придется спасаться от кровожадных акул. Страна: Великобритания, США Студия: thefyzz Продолжительность: 01:29:45 Перевод: Дублированный | iTunes Качество: BDRemux 2160p Видео: 3840x2160 at 23.976 fps, MPEG-H HEVC HDR Video, 76827 kbps Аудио #01: 48 kHz, AC3, 5.1, 384 Kbps | Дублированный | iTunes | RUS | Аудио #02: 48 kHz, DTS-HD MA, 5.1, 3894 Kbps | Оригинал | ENG | Субтитры: Русские (Full), английские
[+] MI General Unique ID : 61374326913066489003806698810460714177 (0x2E2C43F160241C4871621990E609B4C1) Complete name : H:VideoH47.Meters.Down.Uncaged.2019.BDREMUX.2160p.HDR.seleZen.mkv Format : Matroska Format version : Version 4 File size : 50.8 GiB Duration : 1 h 29 min Overall bit rate mode : Variable Overall bit rate : 81.0 Mb/s Frame rate : 23.976 FPS Movie name : 47 Meters Down: Uncaged 2019 from seleZen Encoded date : 2024-01-30 15:22:00 UTC Writing application : mkvmerge v80.0 ('Roundabout') 64-bit Writing library : libebml v1.4.4 + libmatroska v1.7.1 Video ID : 1 Format : HEVC Format/Info : High Efficiency Video Coding Format profile : Main 10@L5.1@High HDR format : SMPTE ST 2086, HDR10 compatible Codec ID : V_MPEGH/ISO/HEVC Duration : 1 h 29 min Bit rate : 76.8 Mb/s Width : 3 840 pixels Height : 2 160 pixels Display aspect ratio : 16:9 Frame rate mode : Constant Frame rate : 23.976 (24000/1001) FPS Color space : YUV Chroma subsampling : 4:2:0 (Type 2) Bit depth : 10 bits Bits/(Pixel*Frame) : 0.386 Stream size : 48.1 GiB (95%) Language : English Default : Yes Forced : No Color range : Limited Color primaries : BT.2020 Transfer characteristics : PQ Matrix coefficients : BT.2020 non-constant Mastering display color pri : BT.2020 Mastering display luminance : min: 0.0001 cd/m2, max: 1000 cd/m2 Maximum Content Light Level : 1000 cd/m2 Maximum Frame-Average Light : 517 cd/m2 Audio #1 ID : 2 Format : AC-3 Format/Info : Audio Coding 3 Commercial name : Dolby Digital Codec ID : A_AC3 Duration : 1 h 29 min Bit rate mode : Constant Bit rate : 384 kb/s Channel(s) : 6 channels Channel layout : L R C LFE Ls Rs Sampling rate : 48.0 kHz Frame rate : 31.250 FPS (1536 SPF) Compression mode : Lossy Stream size : 246 MiB (0%) Title : Dub Language : Russian Service kind : Complete Main Default : Yes Forced : No Audio #2 ID : 3 Format : DTS XLL Format/Info : Digital Theater Systems Commercial name : DTS-HD Master Audio Codec ID : A_DTS Duration : 1 h 29 min Bit rate mode : Variable Bit rate : 3 894 kb/s Channel(s) : 6 channels Channel layout : C L R Ls Rs LFE Sampling rate : 48.0 kHz Frame rate : 93.750 FPS (512 SPF) Bit depth : 24 bits Compression mode : Lossless Stream size : 2.44 GiB (5%) Title : Original Language : English Default : No Forced : No Text #1 ID : 4 Format : UTF-8 Codec ID : S_TEXT/UTF8 Codec ID/Info : UTF-8 Plain Text Duration : 1 h 16 min Bit rate : 59 b/s Frame rate : 0.171 FPS Count of elements : 789 Stream size : 33.7 KiB (0%) Title : Full Language : Russian Default : No Forced : No Text #2 ID : 5 Format : UTF-8 Codec ID : S_TEXT/UTF8 Codec ID/Info : UTF-8 Plain Text Duration : 1 h 16 min Bit rate : 35 b/s Frame rate : 0.156 FPS Count of elements : 719 Stream size : 20.1 KiB (0%) Language : English Default : No Forced : No Menu 00:00:00.000 : Chapter 01 00:10:14.989 : Chapter 02 00:19:08.647 : Chapter 03 00:31:28.553 : Chapter 04 00:43:53.047 : Chapter 05 00:54:17.212 : Chapter 06 01:00:43.640 : Chapter 07 01:07:47.730 : Chapter 08 01:15:02.498 : Chapter 09 01:21:19.875 : Chapter 10
Релиз: Присоединяйся к: Кликай на баннеры.

Всего файлов в раздаче: 1 
47.Meters.Down.Uncaged.2019.BDREMUX.2160p.HDR.seleZen.mkv50.80 GB

Похожие раздачи по запросу - Синяя
2023-11-26 magnet Очень синяя борода [01-03 из 03] (2023) WEBRip от Generalfilm | КПК 591.22 MB ↑ 0 ↓ 0
2023-11-07 magnet Очень синяя борода [01-03 из 03] (2023) WEBRip 1080p от ExKinoRay 6.70 GB ↑ 0 ↓ 1
2023-11-07 magnet Очень синяя борода [S01] (2023) WEBip-AVC от Files-х 1.95 GB ↑ 0 ↓ 0

Комментарии


Зарегистрируйтесь чтобы добавить комментарий
Торрент клиент
byTorrent - программа для загрузки торрент-файлов.

Скачать byTorrent.exe (1,5 МБ)

Скачать byTorrent.zip (0,6 МБ)

Поддержи torrent.by
российских рублей
(300 российских рублей это 4$)

Обратная связь rss

End game ©