↑↓torrent.by
Поиск
Логин:  Регистрация
Пароль:

Джек Ричер / Reacher [S02] (2023) WEB-DL-HEVC 2160p | 4K | HDR | Dolby Vision Profile 8 | P

download Скачать торрент-файл   magnet Магнитная ссылка Размер: 39.41 GB Добавлен: 2024-01-31 05:00
Пиры будут получены из сети DHT
Последний сидер был замечен 2024-02-02 13:33
Название: Джек Ричер Оригинальное название: Reacher Год выхода: 2023 Производство: США / Amazon Studios, Blackjack Films Inc., Paramount Television, Skydance Television Жанр: Боевик, триллер, драма, криминал Перевод: Профессиональный многоголосый закадровый Продолжительность: 8x ~ 00:45:00 Режиссёры: Сэм Хилл, Омар Мадха, Кэрол Бенкер В ролях: Алан Ричсон, Малкольм Гудвин, Уилла Фицджералд, Хью Томпсон, Кристофер Уэбстер, Брюс МакГилл, Макс Дженкинс, Гэвин Уайт, Лесли Фрэй, Джонатан Кёнсген, Уилли С. Карпентер, Харви Гильен Описание: Джек Ричер получает сигнал о помощи от Фрэнсис Нигли, его бывшей подчиненной из отряда спецрасследований. Она сообщает, что один из девяти членов отряда найден мертвым в пустыне неподалеку от Лос-Анджелеса. Судя по всему, его выбросили из самолета. С остальными сослуживцами из отряда потеряна всякая связь. Возможно, они все тоже мертвы. Кому и по какой причине могла понадобиться смерть этих людей? Ричер начинает расследование, осознавая, что его жизни тоже угрожает смертельная опасность… Формат: MKV Качество: WEB-DL 2160p Видео: HEVC/H.265, 3840x1920, ~13.7 Mbps, 0.078 бит/(Пиксели*Кадры), 23.976 fps Аудио 1: AC3, 2 ch, 384 kb/s - Русский MVO (LostFilm) Аудио 2: AC3, 2 ch, 192 kb/s - Русский MVO (HDRezka) Аудио 3: AC3, 6 ch, 384 kb/s - Русский MVO (TVShows) Аудио 4: E-AC3 JOC, 6 ch, 576 kb/s - Английский Субтитры: Русские, английские
[+] MediainfoОбщее Уникальный идентификатор : 238753990028930044609165494989526636265 (0xB39E588B3089D0E3DDD5AB4E293B96E9) Полное имя : E:/Раздачи/Reacher.S02.2160p.AMZN.WEB-DL.DDP5.1.Atmos.DV.HDR.H.265/Reacher.S02E01.ATM.2160p.AMZN.WEB-DL.DDP5.1.Atmos.DV.HDR.H.265.mkv Формат : Matroska Версия формата : Version 4 Размер файла : 5,93 Гбайт Продолжительность : 55 м. 41 с. Общий поток : 15,2 Мбит/сек Частота кадров : 23,976 кадра/сек Дата кодирования : 2024-01-07 22:16:19 UTC Программа кодирования : mkvmerge v81.0 ('Milliontown') 64-bit Библиотека кодирования : libebml v1.4.4 + libmatroska v1.7.1 Видео Идентификатор : 1 Формат : HEVC Формат/Информация : High Efficiency Video Coding Профиль формата : Main 10@L5@Main HDR format : Dolby Vision, Version 1.0, dvhe.08.06, BL+RPU, HDR10 compatible / SMPTE ST 2094 App 4, Version 1, HDR10+ Profile B compatible Идентификатор кодека : V_MPEGH/ISO/HEVC Продолжительность : 55 м. 41 с. Битрейт : 13,7 Мбит/сек Ширина : 3 840 пикселей Высота : 1 920 пикселей Соотношение сторон : 2,000 Режим частоты кадров : Постоянный Частота кадров : 23,976 (24000/1001) кадра/сек Цветовое пространство : YUV Субдискретизация насыщенности : 4:2:0 Битовая глубина : 10 бит Бит/(Пиксели*Кадры) : 0.078 Размер потока : 5,33 Гбайт (90%) Default : Да Forced : Нет Цветовой диапазон : Limited Основные цвета : BT.2020 Характеристики трансфера : PQ Коэффициенты матрицы : BT.2020 non-constant Mastering display color primaries : Display P3 Mastering display luminance : min: 0.0001 cd/m2, max: 1000 cd/m2 Maximum Content Light Level : 472 cd/m2 Maximum Frame-Average Light Level : 185 cd/m2 Аудио #1 Идентификатор : 2 Формат : AC-3 Формат/Информация : Audio Coding 3 Коммерческое название : Dolby Digital Идентификатор кодека : A_AC3 Продолжительность : 55 м. 40 с. Вид битрейта : Постоянный Битрейт : 384 Кбит/сек Каналы : 2 канала Channel layout : L R Частота : 48,0 КГц Частота кадров : 31,250 кадров/сек (1536 SPF) Метод сжатия : С потерями Размер потока : 153 Мбайт (3%) Заголовок : LostFilm Язык : Russian Service kind : Complete Main Default : Да Forced : Нет Аудио #2 Идентификатор : 3 Формат : AC-3 Формат/Информация : Audio Coding 3 Коммерческое название : Dolby Digital Идентификатор кодека : A_AC3 Продолжительность : 55 м. 41 с. Вид битрейта : Постоянный Битрейт : 192 Кбит/сек Каналы : 2 канала Channel layout : L R Частота : 48,0 КГц Частота кадров : 31,250 кадров/сек (1536 SPF) Метод сжатия : С потерями Размер потока : 76,5 Мбайт (1%) Заголовок : HDRezka Язык : Russian Service kind : Complete Main Default : Нет Forced : Нет Аудио #3 Идентификатор : 4 Формат : AC-3 Формат/Информация : Audio Coding 3 Коммерческое название : Dolby Digital Идентификатор кодека : A_AC3 Продолжительность : 55 м. 41 с. Вид битрейта : Постоянный Битрейт : 384 Кбит/сек Каналы : 6 каналов Channel layout : L R C LFE Ls Rs Частота : 48,0 КГц Частота кадров : 31,250 кадров/сек (1536 SPF) Метод сжатия : С потерями Размер потока : 153 Мбайт (3%) Заголовок : TVShows Язык : Russian Service kind : Complete Main Default : Нет Forced : Нет Аудио #4 Идентификатор : 5 Формат : E-AC-3 JOC Формат/Информация : Enhanced AC-3 with Joint Object Coding Коммерческое название : Dolby Digital Plus with Dolby Atmos Идентификатор кодека : A_EAC3 Продолжительность : 55 м. 41 с. Вид битрейта : Постоянный Битрейт : 576 Кбит/сек Каналы : 6 каналов Channel layout : L R C LFE Ls Rs Частота : 48,0 КГц Частота кадров : 31,250 кадров/сек (1536 SPF) Метод сжатия : С потерями Размер потока : 229 Мбайт (4%) Язык : English (US) Service kind : Complete Main Default : Нет Forced : Нет Complexity index : 16 Number of dynamic objects : 15 Bed channel count : 1 канал Bed channel configuration : LFE Текст #1 Идентификатор : 6 Формат : UTF-8 Идентификатор кодека : S_TEXT/UTF8 Идентификатор кодека/Информация : UTF-8 Plain Text Продолжительность : 52 м. 25 с. Битрейт : 112 бит/сек Частота кадров : 0,238 кадр/сек Count of elements : 750 Размер потока : 43,1 Кбайт (0%) Заголовок : Rus (Full) Язык : Russian (RU) Default : Нет Forced : Нет Текст #2 Идентификатор : 7 Формат : UTF-8 Идентификатор кодека : S_TEXT/UTF8 Идентификатор кодека/Информация : UTF-8 Plain Text Продолжительность : 51 м. 56 с. Битрейт : 78 бит/сек Частота кадров : 0,300 кадр/сек Count of elements : 935 Размер потока : 29,7 Кбайт (0%) Язык : English (US) Default : Нет Forced : Нет Текст #3 Идентификатор : 8 Формат : UTF-8 Идентификатор кодека : S_TEXT/UTF8 Идентификатор кодека/Информация : UTF-8 Plain Text Продолжительность : 52 м. 24 с. Битрейт : 82 бит/сек Частота кадров : 0,318 кадр/сек Count of elements : 999 Размер потока : 31,8 Кбайт (0%) Заголовок : SDH Язык : English (US) Default : Нет Forced : Нет Меню 00:00:00.000 : en:Studio Logo 00:00:06.000 : en:Chapter 02 00:01:09.000 : en:Chapter 03 00:02:20.000 : en:Title Sequence 00:02:32.000 : en:Chapter 05 00:03:38.000 : en:Chapter 06 00:04:44.000 : en:Chapter 07 00:05:36.000 : en:Chapter 08 00:06:12.000 : en:Chapter 09 00:06:43.000 : en:Chapter 10 00:08:05.000 : en:Chapter 11 00:08:40.000 : en:Chapter 12 00:09:22.000 : en:Chapter 13 00:10:24.000 : en:Chapter 14 00:16:03.000 : en:Chapter 15 00:16:52.000 : en:Chapter 16 00:17:38.000 : en:Chapter 17 00:18:47.000 : en:Chapter 18 00:20:51.000 : en:Chapter 19 00:21:31.000 : en:Chapter 20 00:22:27.000 : en:Chapter 21 00:22:45.000 : en:Chapter 22 00:23:06.000 : en:Chapter 23 00:23:21.000 : en:Chapter 24 00:28:54.000 : en:Chapter 25 00:29:15.000 : en:Chapter 26 00:29:52.000 : en:Chapter 27 00:30:44.000 : en:Chapter 28 00:31:15.000 : en:Chapter 29 00:31:51.000 : en:Chapter 30 00:33:11.000 : en:Chapter 31 00:34:03.000 : en:Chapter 32 00:34:36.000 : en:Chapter 33 00:35:03.000 : en:Chapter 34 00:35:50.000 : en:Chapter 35 00:36:45.000 : en:Chapter 36 00:38:10.000 : en:Chapter 37 00:39:08.000 : en:Chapter 38 00:40:24.000 : en:Chapter 39 00:41:04.000 : en:Chapter 40 00:41:42.000 : en:Chapter 41 00:42:23.000 : en:Chapter 42 00:43:47.000 : en:Chapter 43 00:47:03.000 : en:Chapter 44 00:47:33.000 : en:Chapter 45 00:49:15.000 : en:Chapter 46 00:50:43.000 : en:End Credits
[+] Скриншоты

Всего файлов в раздаче: 8 
Reacher.S02E01.ATM.2160p.AMZN.WEB-DL.DDP5.1.Atmos.DV.HDR.H.265.RGzsRutracker.mkv5.93 GB
Reacher.S02E02.What.Happens.in.Atlantic.City.2160p.AMZN.WEB-DL.DDP5.1.Atmos.DV.HDR.H.265.RGzsRutracker.mkv5.28 GB
Reacher.S02E03.Picture.Says.a.Thousand.Words.2160p.AMZN.WEB-DL.DDP5.1.Atmos.DV.HDR.H.265.RGzsRutracker.mkv5.00 GB
Reacher.S02E04.A.Night.at.the.Symphony.2160p.AMZN.WEB-DL.DDP5.1.Atmos.DV.HDR.H.265.RGzsRutracker.mkv4.80 GB
Reacher.S02E05.Burial.2160p.AMZN.WEB-DL.DDP5.1.Atmos.DV.HDR.H.265.RGzsRutracker.mkv4.47 GB
Reacher.S02E06.New.Yorks.Finest.2160p.AMZN.WEB-DL.DDP5.1.Atmos.DV.HDR.H.265.RGzsRutracker.mkv4.78 GB
Reacher.S02E07.The.Man.Goes.Through.2160p.AMZN.WEB-DL.DDP5.1.Atmos.DV.HDR.H.265.RGzsRutracker.mkv4.75 GB
Reacher.S02E08.Fly.Boy.2160p.AMZN.WEB-DL.DDP5.1.Atmos.DV.HDR.H.265.RGzsRutracker.mkv4.40 GB

Похожие раздачи по запросу - Джек
2024-01-31 magnet Джек Ричер / Reacher [S02] (2023) WEB-DL 1080p | P 23.36 GB ↑ 0 ↓ 0
2024-01-23 magnet Джек Ричер / Reacher [S02] (2023) WEB-DL 1080p | P | LostFilm, HDRezka Studio 24.33 GB ↑ 0 ↓ 0
2024-01-23 magnet Джек Ричер / Reacher [S02] (2023) WEB-DL-HEVC 2160p | 4K | SDR | P 39.22 GB ↑ 0 ↓ 0
2024-01-23 magnet Джек Ричер / Reacher [S01-02] (2022-2023) WEB-DLRip-AVC | КПК | LostFilm 3.71 GB ↑ 0 ↓ 0
2024-01-22 magnet Джек Ричер / Reacher [S02] (2023) WEB-DL-HEVC 2160p | 4K | HDR | Dolby Vision Profile 8 | P 38.93 GB ↑ 0 ↓ 0
2024-01-22 magnet Джек Ричер / Reacher [S01-02] (2022-2023) WEB-DLRip | LostFilm 2К9.10 GB ↑ 1 ↓ 1
2024-01-21 magnet Джек Ричер / Reacher [S02] (2023) WEB-DLRip-AVC от DoMiNo & селезень | P | HDRezka Studio 4.64 GB ↑ 0 ↓ 1

Комментарии

Slon30
Спасибо за DV. Первый сезон был интересный, второй сезон тоже не подкачал


Зарегистрируйтесь чтобы добавить комментарий
Торрент клиент
byTorrent - программа для загрузки торрент-файлов.

Скачать byTorrent.exe (1,5 МБ)

Скачать byTorrent.zip (0,6 МБ)

Поддержи torrent.by
российских рублей
(300 российских рублей это 4$)

Обратная связь rss

End game ©