↑↓torrent.by
Поиск
Логин:  Регистрация
Пароль:

Роман с камнем / Romancing The Stone (1984) BDRip 1080p | D, P, P2, A

download Скачать торрент-файл   magnet Магнитная ссылка Размер: 13.51 GB Добавлен: 2024-01-31 05:00
Пиры будут получены из сети DHT
Последний сидер был замечен 2024-02-03 09:25
Информация о фильме Название: Роман с камнем Оригинальное название: Romancing The Stone Год выхода: 1984 Страна: США, Мексика Жанр: Боевик, приключения, комедия Продолжительность: 01:45:46 Перевод: Профессиональный (полное дублирование) Советский дубляж Перевод: Профессиональный (многоголосый, закадровый) x 4 Перевод: Профессиональный (двухголосый, закадровый) x 3 Перевод: Авторский (одноголосый, закадровый) x 4 Оригинальная звуковая дорожка: Английский Субтитры: Русские (4 варианта), украинские, английские Режиссер: Роберт Земекис В ролях: Майкл Дуглас, Кэтлин Тернер, Дени ДеВито, Зак Норман, Альфонсо Арау, Мануэль Охеда Описание: Джоан Уайлдер, автор популярных женских романов, находит в своем почтовом ящике пакет, присланный из Колумбии ее сестрой. Телефонный звонок подтверждает самые страшные опасения — сестра похищена, и похитители требуют вернуть пакет. Забыв обо всем на свете, Джоан летит на помощь сестре и теряется в первые часы после прилета. Ее пытаются убить, и только вмешательство Джека Колтона, американского наемника, спасет девушку от гибели. Вместе их ждут экстремальные приключения в джунглях, поиск сокровищ и, конечно, романтическая любовная история. Оскар, 1985 год Золотой глобус, 1985 год Качество: BDRip 1080p Формат: MKV Видео кодек: H264 Аудио кодек: AC3 Видео: MPEG4 Video (H264), 1920x808, 23.976fps, 14.0 Mbps Аудио #01: Русский: Dolby AC3, 48000 Hz, 2ch, 192 kbps - Советский дубляж Аудио #02: Русский: Dolby AC3, 48000 Hz, 6ch, 448 kbps - Многоголосый, Киномания Аудио #03: Русский: Dolby AC3, 48000 Hz, 6ch, 448 kbps - Многоголосый, R5 Аудио #04: Русский: Dolby AC3, 48000 Hz, 2ch, 192 kbps - Многоголосый, Премьер Видео Фильм Аудио #05: Русский: Dolby AC3, 48000 Hz, 2ch, 192 kbps - Многоголосый, Лазер Видео Аудио #06: Русский: Dolby AC3, 48000 Hz, 2ch, 192 kbps - Двухголосый, Позитив-Мультимедиа Аудио #07: Русский: Dolby AC3, 48000 Hz, 6ch, 448 kbps - Одноголосый, А.Гаврилов Аудио #08: Русский: Dolby AC3, 48000 Hz, 6ch, 448 kbps - Одноголосый, В.Горчаков Аудио #09: Русский: Dolby AC3, 48000 Hz, 2ch, 192 kbps - Одноголосый, Л.Володарский Аудио #10: Русский: Dolby AC3, 48000 Hz, 2ch, 192 kbps - Одноголосый, А.Мишин Аудио #11: Украинский: Dolby AC3, 48000 Hz, 6ch, 448 kbps - Двухголосый, 1+1 Аудио #12: Украинский: Dolby AC3, 48000 Hz, 6ch, 448 kbps - Двухголосый, Новый канал Аудио #13: Английский: Dolby AC3, 48000 Hz, 6ch, 448 kbps Формат субтитров: softsub (SRT)
[+] MediaInfo: General Unique ID : 190978520772952370505765372888230739937 (0x8FAD200C6541DCB78482A03783393FE1) Complete name : F:Torrent 21984.Roman.the.Stone.rustorka.mkv Format : Matroska Format version : Version 4 / Version 2 File size : 13.5 GiB Duration : 1h 45mn Overall bit rate : 18.3 Mbps Encoded date : UTC 2015-01-06 11:59:31 Writing application : mkvmerge v7.1.0 ('Good Love') 32bit built on Jul 27 2014 12:59:18 Writing library : libebml v1.3.0 + libmatroska v1.4.1 DURATION : 01:41:49.444000000 NUMBER_OF_FRAMES : 1084 NUMBER_OF_BYTES : 36009 _STATISTICS_WRITING_APP : mkvmerge v7.1.0 ('Good Love') 32bit built on Jul 27 2014 12:59:18 _STATISTICS_WRITING_DATE_UTC : 2015-01-06 11:59:31 _STATISTICS_TAGS : BPS DURATION NUMBER_OF_FRAMES NUMBER_OF_BYTES Video ID : 1 Format : AVC Format/Info : Advanced Video Codec Format profile : High@L4.1 Format settings, CABAC : Yes Format settings, ReFrames : 4 frames Codec ID : V_MPEG4/ISO/AVC Duration : 1h 45mn Bit rate : 14.0 Mbps Width : 1 920 pixels Height : 808 pixels Display aspect ratio : 2.40:1 Frame rate mode : Constant Frame rate : 23.976 fps Color space : YUV Chroma subsampling : 4:2:0 Bit depth : 8 bits Scan type : Progressive Bits/(Pixel*Frame) : 0.376 Stream size : 10.1 GiB (75%) Title : Роман с камнем 1984 / doctor0107 Writing library : x264 core 125 r2208 d9d2288 Encoding settings : cabac=1 / ref=5 / deblock=1:-1:-1 / analyse=0x3:0x133 / me=umh / subme=11 / psy=1 / psy_rd=1.25:0.30 / mixed_ref=1 / me_range=32 / chroma_me=1 / trellis=2 / 8x8dct=1 / cqm=0 / deadzone=21,11 / fast_pskip=0 / chroma_qp_offset=-4 / threads=12 / lookahead_threads=2 / sliced_threads=0 / nr=0 / decimate=1 / interlaced=0 / bluray_compat=0 / constrained_intra=0 / bframes=12 / b_pyramid=1 / b_adapt=2 / b_bias=0 / direct=3 / weightb=1 / open_gop=0 / weightp=2 / keyint=250 / keyint_min=23 / scenecut=40 / intra_refresh=0 / rc_lookahead=50 / rc=2pass / mbtree=1 / bitrate=14000 / ratetol=1.0 / qcomp=0.60 / qpmin=0 / qpmax=69 / qpstep=4 / cplxblur=20.0 / qblur=0.5 / ip_ratio=1.40 / aq=1:1.00 Language : English Default : Yes Forced : No Audio #1 ID : 2 Format : AC-3 Format/Info : Audio Coding 3 Mode extension : CM (complete main) Format settings, Endianness : Big Codec ID : A_AC3 Duration : 1h 45mn Bit rate mode : Constant Bit rate : 192 Kbps Channel(s) : 2 channels Channel positions : Front: L R Sampling rate : 48.0 KHz Bit depth : 16 bits Compression mode : Lossy Stream size : 145 MiB (1%) Title : Советский дубляж Language : Russian Default : Yes Forced : No Audio #2 ID : 3 Format : AC-3 Format/Info : Audio Coding 3 Mode extension : CM (complete main) Format settings, Endianness : Big Codec ID : A_AC3 Duration : 1h 45mn Bit rate mode : Constant Bit rate : 448 Kbps Channel(s) : 6 channels Channel positions : Front: L C R, Side: L R, LFE Sampling rate : 48.0 KHz Bit depth : 16 bits Compression mode : Lossy Stream size : 339 MiB (2%) Title : Многоголосый, Киномания Language : Russian Default : No Forced : No Audio #3 ID : 4 Format : AC-3 Format/Info : Audio Coding 3 Mode extension : CM (complete main) Format settings, Endianness : Big Codec ID : A_AC3 Duration : 1h 45mn Bit rate mode : Constant Bit rate : 448 Kbps Channel(s) : 6 channels Channel positions : Front: L C R, Side: L R, LFE Sampling rate : 48.0 KHz Bit depth : 16 bits Compression mode : Lossy Stream size : 339 MiB (2%) Title : Многоголосый закадровый, R5 Language : Russian Default : No Forced : No Audio #4 ID : 5 Format : AC-3 Format/Info : Audio Coding 3 Mode extension : CM (complete main) Format settings, Endianness : Big Codec ID : A_AC3 Duration : 1h 45mn Bit rate mode : Constant Bit rate : 192 Kbps Channel(s) : 2 channels Channel positions : Front: L R Sampling rate : 48.0 KHz Bit depth : 16 bits Compression mode : Lossy Stream size : 145 MiB (1%) Title : Многоголосый, Премьер Видео Фильм Language : Russian Default : No Forced : No Audio #5 ID : 6 Format : AC-3 Format/Info : Audio Coding 3 Mode extension : CM (complete main) Format settings, Endianness : Big Codec ID : A_AC3 Duration : 1h 45mn Bit rate mode : Constant Bit rate : 192 Kbps Channel(s) : 2 channels Channel positions : Front: L R Sampling rate : 48.0 KHz Bit depth : 16 bits Compression mode : Lossy Stream size : 145 MiB (1%) Title : Многоголосый, Лазер Видео Language : Russian Default : No Forced : No Audio #6 ID : 7 Format : AC-3 Format/Info : Audio Coding 3 Mode extension : CM (complete main) Format settings, Endianness : Big Codec ID : A_AC3 Duration : 1h 45mn Bit rate mode : Constant Bit rate : 192 Kbps Channel(s) : 2 channels Channel positions : Front: L R Sampling rate : 48.0 KHz Bit depth : 16 bits Compression mode : Lossy Stream size : 145 MiB (1%) Title : Двухголосый, Позитив-Мультимедиа Language : Russian Default : No Forced : No Audio #7 ID : 8 Format : AC-3 Format/Info : Audio Coding 3 Mode extension : CM (complete main) Format settings, Endianness : Big Codec ID : A_AC3 Duration : 1h 45mn Bit rate mode : Constant Bit rate : 448 Kbps Channel(s) : 6 channels Channel positions : Front: L C R, Side: L R, LFE Sampling rate : 48.0 KHz Bit depth : 16 bits Compression mode : Lossy Stream size : 339 MiB (2%) Title : Одноголосый, А.Гаврилов Language : Russian Default : No Forced : No Audio #8 ID : 9 Format : AC-3 Format/Info : Audio Coding 3 Mode extension : CM (complete main) Format settings, Endianness : Big Codec ID : A_AC3 Duration : 1h 45mn Bit rate mode : Constant Bit rate : 448 Kbps Channel(s) : 6 channels Channel positions : Front: L C R, Side: L R, LFE Sampling rate : 48.0 KHz Bit depth : 16 bits Compression mode : Lossy Stream size : 339 MiB (2%) Title : Одноголосый, В.Горчаков Language : Russian Default : No Forced : No Audio #9 ID : 10 Format : AC-3 Format/Info : Audio Coding 3 Mode extension : CM (complete main) Format settings, Endianness : Big Codec ID : A_AC3 Duration : 1h 45mn Bit rate mode : Constant Bit rate : 192 Kbps Channel(s) : 2 channels Channel positions : Front: L R Sampling rate : 48.0 KHz Bit depth : 16 bits Compression mode : Lossy Stream size : 145 MiB (1%) Title : Одноголосый, Л.Володарский Language : Russian Default : No Forced : No Audio #10 ID : 11 Format : AC-3 Format/Info : Audio Coding 3 Mode extension : CM (complete main) Format settings, Endianness : Big Codec ID : A_AC3 Duration : 1h 45mn Bit rate mode : Constant Bit rate : 192 Kbps Channel(s) : 2 channels Channel positions : Front: L R Sampling rate : 48.0 KHz Bit depth : 16 bits Compression mode : Lossy Stream size : 145 MiB (1%) Title : Одноголосый, А.Мишин Language : Russian Default : No Forced : No Audio #11 ID : 12 Format : AC-3 Format/Info : Audio Coding 3 Mode extension : CM (complete main) Format settings, Endianness : Big Codec ID : A_AC3 Duration : 1h 45mn Bit rate mode : Constant Bit rate : 448 Kbps Channel(s) : 6 channels Channel positions : Front: L C R, Side: L R, LFE Sampling rate : 48.0 KHz Bit depth : 16 bits Compression mode : Lossy Stream size : 339 MiB (2%) Language : Ukrainian Default : No Forced : No Audio #12 ID : 13 Format : AC-3 Format/Info : Audio Coding 3 Mode extension : CM (complete main) Format settings, Endianness : Big Codec ID : A_AC3 Duration : 1h 45mn Bit rate mode : Constant Bit rate : 448 Kbps Channel(s) : 6 channels Channel positions : Front: L C R, Side: L R, LFE Sampling rate : 48.0 KHz Bit depth : 16 bits Compression mode : Lossy Stream size : 339 MiB (2%) Language : Ukrainian Default : No Forced : No Audio #13 ID : 14 Format : AC-3 Format/Info : Audio Coding 3 Mode extension : CM (complete main) Format settings, Endianness : Big Codec ID : A_AC3 Duration : 1h 45mn Bit rate mode : Constant Bit rate : 448 Kbps Channel(s) : 6 channels Channel positions : Front: L C R, Side: L R, LFE Sampling rate : 48.0 KHz Bit depth : 16 bits Compression mode : Lossy Stream size : 339 MiB (2%) Language : English Default : No Forced : No Text #1 ID : 15 Format : UTF-8 Codec ID : S_TEXT/UTF8 Codec ID/Info : UTF-8 Plain Text Title : R5 Language : Russian Default : No Forced : No Text #2 ID : 16 Format : UTF-8 Codec ID : S_TEXT/UTF8 Codec ID/Info : UTF-8 Plain Text Title : Киномания Language : Russian Default : No Forced : No Text #3 ID : 17 Format : UTF-8 Codec ID : S_TEXT/UTF8 Codec ID/Info : UTF-8 Plain Text Title : vinalord Language : Russian Default : No Forced : No Text #4 ID : 18 Format : UTF-8 Codec ID : S_TEXT/UTF8 Codec ID/Info : UTF-8 Plain Text Language : Russian Default : No Forced : No Text #5 ID : 19 Format : UTF-8 Codec ID : S_TEXT/UTF8 Codec ID/Info : UTF-8 Plain Text Language : Ukrainian Default : No Forced : No Text #6 ID : 20 Format : UTF-8 Codec ID : S_TEXT/UTF8 Codec ID/Info : UTF-8 Plain Text Language : English Default : No Forced : No Menu 00:00:00.000 : en:Chapter 01 00:00:50.675 : en:Chapter 02 00:07:45.173 : en:Chapter 03 00:12:32.376 : en:Chapter 04 00:17:41.268 : en:Chapter 05 00:24:36.516 : en:Chapter 06 00:27:59.594 : en:Chapter 07 00:33:34.053 : en:Chapter 08 00:41:51.175 : en:Chapter 09 00:46:55.354 : en:Chapter 10 00:49:37.391 : en:Chapter 11 00:54:11.289 : en:Chapter 12 01:00:38.384 : en:Chapter 13 01:05:30.468 : en:Chapter 14 01:08:11.378 : en:Chapter 15 01:14:34.970 : en:Chapter 16 01:16:55.235 : en:Chapter 17 01:20:10.138 : en:Chapter 18 01:24:30.482 : en:Chapter 19 01:26:04.284 : en:Chapter 20 01:30:33.219 : en:Chapter 21 01:35:42.194 : en:Chapter 22 01:40:08.419 : en:Chapter 23 01:42:36.608 : en:Chapter 24 01:45:39.583 : en:Chapter 25

Всего файлов в раздаче: 1 
1984.Roman.the.Stone.rustorka.mkv13.51 GB

Похожие раздачи по запросу - Роман
2024-02-22 magnet Роман Путилов - Цикл «Держиморда» [2 книги] (2023-2024) FB2 1.57 MB ↑ 0 ↓ 0
2024-02-06 magnet Роман Романович - Собрание сочинений (2017-2023) FB2 68.25 MB ↑ 0 ↓ 0
2024-01-31 magnet Роман Рябцев - Перекрёстки (2024) MP3 227.23 MB ↑ 0 ↓ 0
2024-01-23 magnet Роман Романович - Собрание сочинений (2017-2023) FB2 67.24 MB ↑ 0 ↓ 0
2024-01-19 magnet Роман Суржиков - Цикл «Полари» [7 книг] (2016-2024) FB2 24.23 MB ↑ 0 ↓ 0
2024-01-08 magnet Серия книг - «Сибирский приключенческий роман» (2013-2023) FB2 92.35 MB ↑ 0 ↓ 0
2024-01-04 magnet Серия книг - «Сибирский приключенческий роман» (2013-2023) FB2 91.13 MB ↑ 0 ↓ 0

Комментарии

Naryto
О господи.. самый охрененый фильм из счастливого советского детства!


Зарегистрируйтесь чтобы добавить комментарий
Торрент клиент
byTorrent - программа для загрузки торрент-файлов.

Скачать byTorrent.exe (1,5 МБ)

Скачать byTorrent.zip (0,6 МБ)

Поддержи torrent.by
российских рублей
(300 российских рублей это 4$)

Обратная связь rss

End game ©