↑↓torrent.by
Поиск
Логин:  Регистрация
Пароль:

Helene Fischer - Best Of [24-bit Hi-Res, Das Ultimative] (2023) FLAC

download Скачать торрент-файл   magnet Магнитная ссылка Размер: 1.13 GB Добавлен: 2024-01-31 11:00
Пиры будут получены из сети DHT
Последний сидер был замечен сегодня в 09:57
Название: Best Of (Das Ultimative) Исполнитель: Helene Fischer Год: 2023 Жанр: Pop, Schlager Издатель (лейбл): Polydor Продолжительность: 01:29:52 Формат/Кодек: FLAC Тип рипа: Tracks Битрейт аудио: Lossless Разрядность: 24 Bit/48 kHz
[+] Трек-лист 01. Atemlos Durch Die Nacht (Bassflow Main Radio/Video Mix) 02. Herzbeben 03. Null Auf 100 04. Phänomen 05. Flieger 06. Blitz 07. Mit Keinem Andern 08. Achterbahn 09. Ich Will Immer Wieder... Dieses Fieber Spür'n 10. Jetzt Oder Nie 11. Volle Kraft Voraus 12. Vamos A Marte 13. Regenbogenfarben 14. Und Morgen Früh Küss Ich Dich Wach 15. Die Hölle Morgen Früh 16. Von Hier Bis Unendlich 17. Lass Mich In Dein Leben 18. Hundert Prozent 19. Vergeben, Vergessen Und Wieder Vertrau'n 20. Du Fängst Mich Auf Und Lässt Mich Fliegen 21. Feuer Am Horizont 22. Mitten Im Paradies 23. Ich Glaub Dir Hundert Lügen 24. Du Lässt Mich Sein, So Wie Ich Bin
[+] DRM foobar2000 1.5.5 / Замер динамического диапазона (DR) 1.1.1 ------------------------------------------------------------------------------- Анализ: Helene Fischer / Best Of (Das Ultimative) (1-23) Kerstin Ott / Best Of (Das Ultimative) (24) -------------------------------------------------------------------------------- DR Пики RMS Продолжительность трека -------------------------------------------------------------------------------- DR4 -0.90 дБ -6.90 дБ 3:39 01-Atemlos Durch Die Nacht (Bassflow Main Radio/Video Mix) DR4 -1.24 дБ -7.03 дБ 3:26 02-Herzbeben DR5 -1.92 дБ -8.88 дБ 3:58 03-Null Auf 100 DR5 -1.40 дБ -8.26 дБ 4:01 04-Phänomen DR3 -1.84 дБ -7.05 дБ 4:12 05-Flieger DR4 -2.74 дБ -8.61 дБ 2:39 06-Blitz DR5 -0.90 дБ -6.71 дБ 3:43 07-Mit Keinem Andern DR5 -2.41 дБ -8.79 дБ 3:39 08-Achterbahn DR5 -0.90 дБ -7.13 дБ 3:29 09-Ich Will Immer Wieder... Dieses Fieber Spür'n DR4 -1.84 дБ -8.00 дБ 3:32 10-Jetzt Oder Nie DR6 -1.59 дБ -9.87 дБ 3:23 11-Volle Kraft Voraus DR3 -1.71 дБ -7.07 дБ 3:24 12-Vamos A Marte DR6 -0.90 дБ -8.09 дБ 3:45 14-Und Morgen Früh Küss Ich Dich Wach DR6 -0.90 дБ -7.92 дБ 4:50 15-Die Hölle Morgen Früh DR6 -0.90 дБ -8.66 дБ 3:46 16-Von Hier Bis Unendlich DR6 -0.90 дБ -8.72 дБ 3:44 17-Lass Mich In Dein Leben DR5 -1.74 дБ -7.94 дБ 3:59 18-Hundert Prozent DR5 -0.90 дБ -7.49 дБ 4:01 19-Vergeben, Vergessen Und Wieder Vertrau'n DR5 -1.18 дБ -7.91 дБ 4:01 20-Du Fängst Mich Auf Und Lässt Mich Fliegen DR6 -0.91 дБ -8.51 дБ 3:52 21-Feuer Am Horizont DR5 -1.41 дБ -7.29 дБ 3:28 22-Mitten Im Paradies DR5 -2.34 дБ -8.41 дБ 3:22 23-Ich Glaub Dir Hundert Lügen DR7 -0.90 дБ -10.49 дБ 4:12 24-Du Lässt Mich Sein, So Wie Ich Bin DR6 -1.82 дБ -9.03 дБ 3:47 13-Regenbogenfarben -------------------------------------------------------------------------------- Количество треков: 24 Реальные значения DR: DR5 Частота: 48000 Гц Каналов: 2 Разрядность: 24 Битрейт: 1758 кбит/с Кодек: FLAC ================================================================================
Время раздачи: 24/7 (минимум до появления первых 3-5 скачавших, на раздачи не возвращаюсь) Первое правило участника файлообмена: "Скачал сам - дай скачать другому!"

Всего файлов в раздаче: 25 
01. Atemlos Durch Die Nacht (Bassflow Main RadioVideo Mix).flac48.62 MB
02. Herzbeben.flac43.45 MB
03. Null Auf 100.flac48.90 MB
04. Phänomen.flac51.22 MB
05. Flieger.flac55.34 MB
06. Blitz.flac33.94 MB
07. Mit Keinem Andern.flac48.97 MB
08. Achterbahn.flac44.81 MB
09. Ich Will Immer Wieder... Dieses Fieber Spür'n.flac46.60 MB
10. Jetzt Oder Nie.flac44.77 MB
Показать все файлы

Похожие раздачи по запросу - Helene
2024-01-31 magnet Helene Fischer - Rausch Live [24-bit Hi-Res, Die Arena Tour] (2024) FLAC 1.69 GB ↑ 0 ↓ 0
2024-01-30 magnet Helene Fischer - Best Of [Das Ultimative] (2023) MP3 210.09 MB ↑ 0 ↓ 0

Комментарии


Зарегистрируйтесь чтобы добавить комментарий
Торрент клиент
byTorrent - программа для загрузки торрент-файлов.

Скачать byTorrent.exe (1,5 МБ)

Скачать byTorrent.zip (0,6 МБ)

Поддержи torrent.by
российских рублей
(300 российских рублей это 4$)

Обратная связь rss

End game ©