↑↓torrent.by
Поиск
Логин:  Регистрация
Пароль:

Фабельманы / The Fabelmans (2022) HDRip-AVC от DoMiNo & селезень | Лицензия

download Скачать торрент-файл   magnet Магнитная ссылка Размер: 3.15 GB Добавлен: 2024-01-31 11:00
Пиры будут получены из сети DHT
Последний сидер был замечен сегодня в 01:34
Информация о фильме Название: Фабельманы Оригинальное название: The Fabelmans Год выпуска: 2022 Жанр: Драма Режиссер: Стивен Спилберг / Steven Spielberg В ролях: Мишель Уильямс, Пол Дано, Сет Роген, Гэбриел ЛаБелль, Дженни Берлин, Джулия Баттерз, Робин Бартлетт, Кили Карстен, Джадд Хёрш, Оакс Фигли, Гэбриел Бейтман, Николас Канту, Сэм Речнер, Хлоя Ист, Изабель Кусман О фильме: Выросший в Аризоне после Второй мировой войны, молодой человек по имени Сэмми Фебельман узнает сокрушительную семейную тайну и исследует, как сила кино может помочь ему увидеть правду. Выпущено: США, Amblin Entertainment, Amblin Partners, Reliance Entertainment Продолжительность: 02:30:45 Перевод: Дублированный | Лицензия Субтитры: Русские (Forced, 2 x Full), украинские (Full), английские Файл Формат: Matroska Качество: HDRip-AVC Видео: 1024x552 at 23.976 fps, x264@L4.1, ~2152 kbps Аудио 1: AC3, 6 ch, ~384 kbps - | Русский | Аудио 2: AC3, 6 ch, ~448 kbps - | Английский | Формат субтитров: softsub (SRT) ***Рип от: -=DoMiNo=-
[+] M/Ix264 : frame I:1489 Avg QP:16.90 size: 66154 x264 : frame P:48406 Avg QP:18.67 size: 23123 x264 : frame B:166985 Avg QP:20.71 size: 7281 x264 : consecutive B-frames: 2.0% 2.7% 8.9% 24.5% 18.0% 34.4% 6.1% 1.3% 0.9% 0.5% 0.5% General Unique ID : 160338059698474275203632735316398167984 (0x789FFCAEA453DEEB488401AC46EDD7B0) Complete name : D:The.Fabelmans.2022.D.HDRip.x264.seleZen.mkv Format : Matroska Format version : Version 4 File size : 3.15 GiB Duration : 2 h 31 min Overall bit rate : 2 983 kb/s Frame rate : 23.976 FPS Movie name : The.Fabelmans.2022.D.HDRip.x264.seleZen Encoded date : 2023-08-31 18:55:00 UTC Writing application : mkvmerge v79.0 ('Funeral Pyres') 64-bit Writing library : libebml v1.4.4 + libmatroska v1.7.1 Cover : Yes Attachments : cover.jpg / small_cover.jpg Video ID : 1 Format : AVC Format/Info : Advanced Video Codec Format profile : High@L4.1 Format settings : CABAC / 12 Ref Frames Format settings, CABAC : Yes Format settings, Reference : 12 frames Codec ID : V_MPEG4/ISO/AVC Duration : 2 h 30 min Bit rate : 2 152 kb/s Width : 1 024 pixels Height : 552 pixels Display aspect ratio : 1.85:1 Frame rate mode : Constant Frame rate : 23.976 (24000/1001) FPS Color space : YUV Chroma subsampling : 4:2:0 Bit depth : 8 bits Scan type : Progressive Bits/(Pixel*Frame) : 0.159 Stream size : 2.27 GiB (72%) Title : -=DoMiNo=- Writing library : x264 core 164 r3099+55M 141af3f t_mod_New | by -=DoMiNo=- | X86_64 Encoding settings : cabac=1 / ref=12 / deblock=1:-3:-3 / analyse=0x3:0x133 / me=umh / subme=10 / psy=1 / fade_compensate=0.00 / psy_rd=1.02:0.05 / mixed_ref=1 / me_range=32 / chroma_me=1 / trellis=2 / 8x8dct=1 / cqm=0 / deadzone=21,11 / fast_pskip=0 / chroma_qp_offset=-3 / threads=17 / lookahead_threads=4 / sliced_threads=0 / nr=0 / decimate=1 / interlaced=0 / bluray_compat=0 / constrained_intra=0 / fgo=0 / bframes=10 / b_pyramid=2 / b_adapt=2 / b_bias=0 / direct=3 / weightb=1 / open_gop=0 / weightp=2 / keyint=240 / keyint_min=23 / scenecut=40 / intra_refresh=0 / rc=crf / mbtree=0 / crf=19.5000 / qcomp=0.70 / qpmin=0:0:0 / qpmax=69:69:69 / qpstep=4 / ip_ratio=1.35 / pb_ratio=1.25 / aq=3:0.80 / aq-sensitivity=10.00 / aq-factor=1.00:1.00:1.00 / aq2=0 / aq3=0 Language : English Default : Yes Forced : No Color range : Limited Matrix coefficients : BT.709 Audio #1 ID : 2 Format : AC-3 Format/Info : Audio Coding 3 Commercial name : Dolby Digital Codec ID : A_AC3 Duration : 2 h 31 min Bit rate mode : Constant Bit rate : 384 kb/s Channel(s) : 6 channels Channel layout : L R C LFE Ls Rs Sampling rate : 48.0 kHz Frame rate : 31.250 FPS (1536 SPF) Compression mode : Lossy Stream size : 415 MiB (13%) Title : Dub Language : Russian Service kind : Complete Main Default : Yes Forced : No Audio #2 ID : 3 Format : AC-3 Format/Info : Audio Coding 3 Commercial name : Dolby Digital Codec ID : A_AC3 Duration : 2 h 30 min Bit rate mode : Constant Bit rate : 448 kb/s Channel(s) : 6 channels Channel layout : L R C LFE Ls Rs Sampling rate : 48.0 kHz Frame rate : 31.250 FPS (1536 SPF) Compression mode : Lossy Stream size : 483 MiB (15%) Title : Original Language : English Service kind : Complete Main Default : No Forced : No Text #1 ID : 4 Format : UTF-8 Codec ID : S_TEXT/UTF8 Codec ID/Info : UTF-8 Plain Text Duration : 2 h 10 min Bit rate : 4 b/s Frame rate : 0.010 FPS Count of elements : 81 Stream size : 4.01 KiB (0%) Title : Forced Language : Russian Default : Yes Forced : No Text #2 ID : 5 Format : UTF-8 Codec ID : S_TEXT/UTF8 Codec ID/Info : UTF-8 Plain Text Duration : 2 h 29 min Bit rate : 75 b/s Frame rate : 0.185 FPS Count of elements : 1668 Stream size : 83.1 KiB (0%) Title : Full Language : Russian Default : No Forced : No Text #3 ID : 6 Format : UTF-8 Codec ID : S_TEXT/UTF8 Codec ID/Info : UTF-8 Plain Text Duration : 2 h 22 min Bit rate : 111 b/s Frame rate : 0.254 FPS Count of elements : 2164 Stream size : 117 KiB (0%) Title : Full v.2 Language : Russian Default : No Forced : No Text #4 ID : 7 Format : UTF-8 Codec ID : S_TEXT/UTF8 Codec ID/Info : UTF-8 Plain Text Duration : 2 h 29 min Bit rate : 77 b/s Frame rate : 0.196 FPS Count of elements : 1768 Stream size : 85.3 KiB (0%) Title : Full Language : Ukrainian Default : No Forced : No Text #5 ID : 8 Format : UTF-8 Codec ID : S_TEXT/UTF8 Codec ID/Info : UTF-8 Plain Text Duration : 2 h 30 min Bit rate : 69 b/s Frame rate : 0.286 FPS Count of elements : 2583 Stream size : 77.1 KiB (0%) Language : English Default : No Forced : No Menu 00:00:00.000 : en:Chapter 01 00:10:46.354 : en:Chapter 02 00:15:51.951 : en:Chapter 03 00:20:52.251 : en:Chapter 04 00:31:55.664 : en:Chapter 05 00:40:15.580 : en:Chapter 06 00:45:29.769 : en:Chapter 07 00:55:09.640 : en:Chapter 08 01:02:52.644 : en:Chapter 09 01:10:19.674 : en:Chapter 10 01:15:58.220 : en:Chapter 11 01:23:04.354 : en:Chapter 12 01:29:21.147 : en:Chapter 13 01:36:14.185 : en:Chapter 14 01:45:57.434 : en:Chapter 15 01:53:04.778 : en:Chapter 16 02:02:19.666 : en:Chapter 17 02:10:42.877 : en:Chapter 18 02:16:20.714 : en:Chapter 19 02:23:49.913 : en:Chapter 20
Релиз: Присоединяйся к: Кликай на баннеры.

Всего файлов в раздаче: 1 
The.Fabelmans.2022.D.HDRip.x264.seleZen.mkv3.15 GB

Комментарии


Зарегистрируйтесь чтобы добавить комментарий
Торрент клиент
byTorrent - программа для загрузки торрент-файлов.

Скачать byTorrent.exe (1,5 МБ)

Скачать byTorrent.zip (0,6 МБ)

Поддержи torrent.by
российских рублей
(300 российских рублей это 4$)

Обратная связь rss

End game ©