↑↓torrent.by
Поиск
Логин:  Регистрация
Пароль:

Оффлайн [02x01-09 из 10] (2023) WEBRip 720p от ExKinoRay

download Скачать торрент-файл   magnet Магнитная ссылка Размер: 12.39 GB Добавлен: 2024-01-31 17:00
Пиры будут получены из сети DHT
Последний сидер был замечен 2024-02-05 18:05
Информация о фильме Название: Оффлайн Год выхода: 2023 Жанр: Триллер, детектив, драма Режиссер: Кирилл Плетнёв В ролях: Никита Ефремов, Денис Шведов, Никита Кологривый, Полина Максимова, Альфия Закирова, Марина Ворожищева, Алёна Константинова, Тина Стойилкович, Егор Кенжаметов, Игорь Черневич, Риналь Мухаметов, Полина Пушкарук, Алексей Шевченков, Дмитрий Ульянов (I), Анна Каменкова О фильме:BeHappy - секретное невидимое приложение, которое служит для покупки наркотиков через смартфон. Его пользователи сталкиваются с серьезным противником, который прячется под именем Анонимус. Он сообщает им, что сумел раскрыть данные всех, кто когда-либо пользовался этим приложением и теперь он дает им выбор - пойти в полицию и во всем признаться или сыграть в игру со смертью. Что будет, если в этой игре проиграть, становится ясно, когда пользователи BeHappy получают фото кладмена с перерезанным горлом. Страна: Россия Студия: BUBBLEGUM PRODUCTION Язык: Русский Файл Формат: MKV Качество: WEBRip 720p Видео: MPEG-4 AVC, ~ 3200 Кбит/с, 1280x720, 25 кадр/с Аудио 1: Русский AC3, 6 ch, 384 Кбит/с | С цензурой Аудио 2: Русский AC3, 6 ch, 384 Кбит/с | Без цензуры (18+) RUS Продолжительность: 9 х ~ 00:52:00 Субтитры: Нет Реклама: Отсутствует
[+] МИ General Unique ID : 212096334712405700045272768848426764587 (0x9F9044A9864BBBD9B17F7A682B59092B) Complete name : G:Offlain.S02.2023.WEB-DL.(720p).ExKinoRayOfflain.S02.E01.2023.WEB-DL.(720p).ExKinoRay.mkv Format : Matroska Format version : Version 4 File size : 1.37 GiB Duration : 49 min 22 s Overall bit rate : 3 961 kb/s Encoded date : UTC 2023-12-08 00:38:55 Writing application : mkvmerge v6.9.1 ('Blue Panther') 64bit built on Apr 18 2014 18:23:38 Writing library : libebml v1.3.0 + libmatroska v1.4.1 Video ID : 1 Format : AVC Format/Info : Advanced Video Codec Format profile : High@L3.1 Format settings : CABAC / 3 Ref Frames Format settings, CABAC : Yes Format settings, Reference frames : 3 frames Codec ID : V_MPEG4/ISO/AVC Duration : 49 min 22 s Bit rate : 3 200 kb/s Width : 1 280 pixels Height : 720 pixels Display aspect ratio : 16:9 Frame rate mode : Constant Frame rate : 25.000 FPS Color space : YUV Chroma subsampling : 4:2:0 Bit depth : 8 bits Scan type : Progressive Bits/(Pixel*Frame) : 0.139 Stream size : 1.07 GiB (79%) Writing library : x264 core 164 r3095 baee400 Encoding settings : cabac=1 / ref=4 / deblock=1:-1:-1 / analyse=0x3:0x133 / me=umh / subme=9 / psy=1 / psy_rd=0.40:1.00 / mixed_ref=1 / me_range=24 / chroma_me=1 / trellis=0 / 8x8dct=1 / cqm=0 / deadzone=21,11 / fast_pskip=1 / chroma_qp_offset=-2 / threads=3 / lookahead_threads=1 / sliced_threads=0 / nr=0 / decimate=1 / interlaced=0 / bluray_compat=0 / stitchable=1 / constrained_intra=0 / bframes=8 / b_pyramid=1 / b_adapt=0 / b_bias=0 / direct=3 / weightb=1 / open_gop=0 / weightp=2 / keyint=75 / keyint_min=38 / scenecut=0 / intra_refresh=0 / rc_lookahead=40 / rc=2pass / mbtree=1 / bitrate=3200 / ratetol=1.0 / qcomp=0.80 / qpmin=1 / qpmax=69 / qpstep=4 / cplxblur=20.0 / qblur=0.5 / vbv_maxrate=4800 / vbv_bufsize=6400 / nal_hrd=none / filler=0 / ip_ratio=1.40 / aq=1:1.00 Language : Russian Default : Yes Forced : No Audio #1 ID : 2 Format : AC-3 Format/Info : Audio Coding 3 Commercial name : Dolby Digital Codec ID : A_AC3 Duration : 49 min 22 s Bit rate mode : Constant Bit rate : 384 kb/s Channel(s) : 6 channels Channel layout : L R C LFE Ls Rs Sampling rate : 48.0 kHz Frame rate : 31.250 FPS (1536 SPF) Compression mode : Lossy Stream size : 136 MiB (10%) Language : Russian Service kind : Complete Main Default : Yes Forced : No Audio #2 ID : 3 Format : AC-3 Format/Info : Audio Coding 3 Commercial name : Dolby Digital Codec ID : A_AC3 Duration : 49 min 22 s Bit rate mode : Constant Bit rate : 384 kb/s Channel(s) : 6 channels Channel layout : L R C LFE Ls Rs Sampling rate : 48.0 kHz Frame rate : 31.250 FPS (1536 SPF) Compression mode : Lossy Stream size : 136 MiB (10%) Title : 18+ Language : Russian Service kind : Complete Main Default : No Forced : No
[+] Скриншоты
Релиз от:

Всего файлов в раздаче: 9 
Offlain.S02.E01.2023.WEB-DL.(720p).ExKinoRay.mkv1.37 GB
Offlain.S02.E02.2023.WEB-DL.(720p).ExKinoRay.mkv1.33 GB
Offlain.S02.E03.2023.WEB-DL.(720p).ExKinoRay.mkv1.33 GB
Offlain.S02.E04.2023.WEB-DL.(720p).ExKinoRay.mkv1.41 GB
Offlain.S02.E05.2023.WEB-DL.(720p).ExKinoRay.mkv1.37 GB
Offlain.S02.E06.2023.WEB-DL.(720p).ExKinoRay.mkv1.61 GB
Offlain.S02.E07.2023.WEB-DL.(720p).ExKinoRay.mkv1.32 GB
Offlain.S02.E08.2023.WEB-DL.(720p).ExKinoRay.mkv1.40 GB
Offlain.S02.E09.2023.WEB-DL.(720p).ExKinoRay.mkv1.25 GB

Похожие раздачи по запросу - Оффлайн
2024-02-13 magnet Оффлайн [S02] (2023) WEBRip от Generalfilm | КПК 1.85 GB ↑ 0 ↓ 0
2024-02-08 magnet Оффлайн [S02] (2023) WEBRip-AVC от Files-х 8.26 GB ↑ 0 ↓ 0
2024-02-07 magnet Оффлайн [S02] (2023) WEBRip 720p от ExKinoRay 13.64 GB ↑ 0 ↓ 0
2024-02-07 magnet Оффлайн [S02] (2023) WEBRip-HEVC 2160p | 4K | SDR 43.69 GB ↑ 0 ↓ 0
2024-02-07 magnet Оффлайн [S02] (2023) WEBRip 1080p от ExKinoRay 1К22.46 GB ↑ 0 ↓ 0
2024-02-07 magnet Оффлайн [S02] (2023) WEBRip 8.48 GB ↑ 0 ↓ 0
2024-01-31 magnet Оффлайн [02х01-09 из 10] (2023) WEBRip-AVC от Files-х 1К7.49 GB ↑ 0 ↓ 0

Комментарии


Зарегистрируйтесь чтобы добавить комментарий
Торрент клиент
byTorrent - программа для загрузки торрент-файлов.

Скачать byTorrent.exe (1,5 МБ)

Скачать byTorrent.zip (0,6 МБ)

Поддержи torrent.by
российских рублей
(300 российских рублей это 4$)

Обратная связь rss

End game ©