↑↓torrent.by
Поиск
Логин:  Регистрация
Пароль:

Рок-н-ролл для принцесс (1990) WEBRip 1080p

download Скачать торрент-файл   magnet Магнитная ссылка Размер: 5.23 GB Добавлен: 2024-01-31 17:00
Пиры будут получены из сети DHT
Последний сидер был замечен 2024-02-02 09:03
Информация о фильме Оригинальное название: Рок-н-ролл для принцесс Год выпуска: 1990 Жанр: комедия, семейный Выпущено: СССР / Одесская киностудия (по заказу Укрвидео) Режиссер: Радомир Василевский В ролях: Валерий Ивченко, Светлана Немоляева, Виктор Павлов, Александр Пашутин, Игорь Письменный, Валентина Касьянова, Надежда Самсонова, Софья Горшкова, Михаил Дементьев, Светлана Свирко Описание: Король и королева мармеладного государства задумали женить принца, для этого затеяли конкурс принцесс, превратившийся в забавный, в стиле рок-н-ролл, полный шуток и юмора праздник, который окончился победой любви двух чистых молодых сердец. Продолжительность: 2x ~01:10:00 Субтитры: Отсутствуют Файл Формат: MKV Качество: WEBRip 1080p Видео: AVC/H.264, 1440x1080, ~5000 Kbps Аудио: E-AC3, 2 ch, 256 Kbps - Русский Релиз от: karfagen1975
[+] MediaInfo:(Тех. данные всех серий идентичны)General Unique ID : 139033063977629516068765742488728263697 (0x6898CB4B47DBDE98646CD43774225C11) Complete name : Рок-н-ролл.для.принцесс.S01.WEB-DL.1080pРок-н-ролл.для.принцесс.S01E01.WEB-DL.1080p.mkv Format : Matroska Format version : Version 4 File size : 2.46 GiB Duration : 1 h 7 min Overall bit rate : 5 248 kb/s Frame rate : 25.000 FPS Encoded date : 2024-01-30 15:08:14 UTC Writing application : mkvmerge v75.0.0 ('Goliath') 64-bit Writing library : libebml v1.4.4 + libmatroska v1.7.1 Video ID : 1 Format : AVC Format/Info : Advanced Video Codec Format profile : High@L4 Format settings : CABAC / 3 Ref Frames Format settings, CABAC : Yes Format settings, Reference frames : 3 frames Codec ID : V_MPEG4/ISO/AVC Duration : 1 h 7 min Bit rate : 5 000 kb/s Width : 1 440 pixels Height : 1 080 pixels Display aspect ratio : 4:3 Frame rate mode : Constant Frame rate : 25.000 FPS Color space : YUV Chroma subsampling : 4:2:0 Bit depth : 8 bits Scan type : Progressive Bits/(Pixel*Frame) : 0.129 Stream size : 2.34 GiB (95%) Title : 01. Рок-н-ролл для принцесс (1990) WEB-DL 1080p Writing library : x264 core 161 r3048 b86ae3c Encoding settings : cabac=1 / ref=4 / deblock=1:1:1 / analyse=0x3:0x133 / me=umh / subme=9 / psy=1 / psy_rd=0.40:1.00 / mixed_ref=1 / me_range=24 / chroma_me=1 / trellis=0 / 8x8dct=1 / cqm=0 / deadzone=21,11 / fast_pskip=1 / chroma_qp_offset=-2 / threads=34 / lookahead_threads=2 / sliced_threads=0 / nr=0 / decimate=1 / interlaced=0 / bluray_compat=0 / constrained_intra=0 / bframes=8 / b_pyramid=1 / b_adapt=1 / b_bias=0 / direct=3 / weightb=1 / open_gop=0 / weightp=2 / keyint=75 / keyint_min=38 / scenecut=0 / intra_refresh=0 / rc_lookahead=30 / rc=2pass / mbtree=1 / bitrate=5000 / ratetol=1.0 / qcomp=0.80 / qpmin=1 / qpmax=69 / qpstep=4 / cplxblur=20.0 / qblur=0.5 / vbv_maxrate=7500 / vbv_bufsize=10000 / nal_hrd=none / filler=0 / ip_ratio=1.40 / aq=1:1.00 Language : Russian Default : Yes Forced : No Color range : Limited Color primaries : BT.709 Transfer characteristics : BT.709 Matrix coefficients : BT.709 Audio ID : 2 Format : E-AC-3 Format/Info : Enhanced AC-3 Commercial name : Dolby Digital Plus Codec ID : A_EAC3 Duration : 1 h 7 min Bit rate mode : Constant Bit rate : 256 kb/s Channel(s) : 2 channels Channel layout : L R Sampling rate : 48.0 kHz Frame rate : 31.250 FPS (1536 SPF) Compression mode : Lossy Stream size : 123 MiB (5%) Language : Russian Service kind : Complete Main Default : Yes Forced : No
[+] Особенности фильма:Время и место действия определению не поддаётся. С одной стороны герои фильма носят старинную одежду, живут в замках, дерутся на шпагах, с другой — ездят на велосипедах и автомобилях, а также смотрят конкурс принцесс в прямом эфире по телевизору, причём телевизоры явно советского производства. Принцессы из фильма принцесс напоминают мало. Это скорее советские городские девчонки. Вопреки названию, рок-н-ролл в фильме практически отсутствует, он звучит в фильме лишь один раз в самом конце, когда было объявлено, что Измора тайно поженила Филофея. Все остальные песни в фильме поются в стиле поп. В журнале «Искусство кино» музыка, написанная для фильма Давидом Тухмановым, названа слабой и неинтересной.
[+] Скриншоты

Всего файлов в раздаче: 2 
Рок-н-ролл.для.принцесс.S01E01.WEB-DL.1080p.mkv2.46 GB
Рок-н-ролл.для.принцесс.S01E02.WEB-DL.1080p.mkv2.77 GB

Похожие раздачи по запросу - Рок-н-ролл
2024-02-15 magnet Красная Плесень - Панк-Рок на античной арфе (2024) FLAC 163.11 MB ↑ 0 ↓ 0
2024-01-07 magnet Рок-Острова - Настройся на Весну [4CD] (2023) MP3 527.87 MB ↑ 0 ↓ 0
2023-12-30 magnet VA - Зимний рок Vol.1 (2023) MP3 355.23 MB ↑ 0 ↓ 0
2023-12-29 magnet Владимир Захаров (Рок-Острова) - Синглы (2023) MP3 184.62 MB ↑ 0 ↓ 0
2023-12-27 magnet Владимир Захаров и группа Рок-Острова - Новогодний. Пусть сбываются надежды (2023) MP3 267.57 MB ↑ 0 ↓ 0
2023-08-22 magnet Рок-Острова - Белоснежная Вишня (1991) MP3 53.11 MB ↑ 0 ↓ 0
2022-03-22 magnet Сборник - Это наш рок (2022) MP3 4.89 GB ↑ 0 ↓ 0

Комментарии


Зарегистрируйтесь чтобы добавить комментарий
Торрент клиент
byTorrent - программа для загрузки торрент-файлов.

Скачать byTorrent.exe (1,5 МБ)

Скачать byTorrent.zip (0,6 МБ)

Поддержи torrent.by
российских рублей
(300 российских рублей это 4$)

Обратная связь rss

End game ©