↑↓torrent.by
Поиск
Логин:  Регистрация
Пароль:

Мистер Бонс / Mr. Bones (2001) DVDRip-AVC от ExKinoRay | P

download Скачать торрент-файл   magnet Магнитная ссылка Размер: 2.03 GB Добавлен: 2024-01-31 17:00
Пиры будут получены из сети DHT
Последний сидер был замечен 2024-02-03 21:36
Информация о фильме Название: Мистер Бонс Оригинальное название: Mr. Bones Год выхода: 2001 Жанр: Комедия Режиссер: Грей Хоффмейр В ролях: Леон Шустер, Дэвид Рэмси, Фэйзон Лав, Роберт Уайтхед, Джейн Бенни, Зак Ду Плесси, Крэйг Моррис, Септула Себогоди О фильме : В Африке аборигены племени кувуки находят младенца с белой кожей. Очевидно, что младенец послан богами - ведь он сидит посреди саванны в самолетном кресле и беседует с дикими львами. Повзрослев, мальчик проявляет недюжинные способности на поприще гадания по костям. За это он назначается главным шаманом королевства и получает имя Бонс, что означает "кости". Бонс шаманит себе без забот до тех пор, пока король не возлагает на него ответственную миссию - разыскать единственного наследника престола, который, предположительно, обитает в диких каменных джунглях цивилизованного мира. Страна: ЮАР Студия: Distant Horizons, Videovision Entertainment Продолжительность: 01:36:50 Перевод: Профессиональный многоголосый Файл Формат: MKV Качество: DVDRip-AVC Видео: MPEG-4 AVC, 756x574, 2550 Кбит/с Аудио: AC3, 6 ch, 448 Кбит/с Субтитры: Нет
[+] MIОбщее Уникальный идентификатор : 255121241558317893996677227996310316711 (0xBFEE9058E8AA56162F86B6A96A36A6A7) Полное имя : D:MOVIESMr_Bones.2001.DVDRip-AVC.ExKinoRay.mkv Формат : Matroska Версия формата : Version 4 Размер файла : 2,03 Гбайт Продолжительность : 1 ч. 36 м. Общий поток : 2 999 Кбит/сек Частота кадров : 25,000 кадров/сек Дата кодирования : 2024-01-31 04:22:58 UTC Программа кодирования : mkvmerge v46.0.0 ('No Deeper Escape') 64-bit Библиотека кодирования : libebml v1.3.10 + libmatroska v1.5.2 Видео Идентификатор : 1 Формат : AVC Формат/Информация : Advanced Video Codec Профиль формата : High@L4.1 Настройки формата : CABAC / 10 Ref Frames Параметр CABAC формата : Да Параметр RefFrames формата : 10 кадров Идентификатор кодека : V_MPEG4/ISO/AVC Продолжительность : 1 ч. 36 м. Битрейт : 2 550 Кбит/сек Ширина : 756 пикселей Высота : 574 пикселя Соотношение сторон : 4:3 Режим частоты кадров : Постоянный Частота кадров : 25,000 кадров/сек Цветовое пространство : YUV Субдискретизация насыщенности : 4:2:0 Битовая глубина : 8 бит Тип развёртки : Прогрессивная Бит/(Пиксели*Кадры) : 0.235 Размер потока : 1,72 Гбайт (85%) Библиотека кодирования : x264 core 164 r3107 a8b68eb Настройки программы : cabac=1 / ref=10 / deblock=1:-2:-2 / analyse=0x3:0x133 / me=umh / subme=10 / psy=1 / psy_rd=1.05:0.14 / mixed_ref=1 / me_range=32 / chroma_me=0 / trellis=2 / 8x8dct=1 / cqm=0 / deadzone=21,11 / fast_pskip=0 / chroma_qp_offset=-3 / threads=6 / lookahead_threads=1 / sliced_threads=0 / nr=0 / decimate=0 / interlaced=0 / bluray_compat=0 / constrained_intra=0 / bframes=12 / b_pyramid=2 / b_adapt=2 / b_bias=0 / direct=3 / weightb=1 / open_gop=0 / weightp=2 / keyint=250 / keyint_min=25 / scenecut=40 / intra_refresh=0 / rc=2pass / mbtree=0 / bitrate=2550 / ratetol=1.0 / qcomp=0.60 / qpmin=0 / qpmax=69 / qpstep=4 / cplxblur=20.0 / qblur=0.5 / ip_ratio=1.40 / pb_ratio=1.30 / aq=1:1.00 Язык : English Default : Да Forced : Нет Аудио Идентификатор : 2 Формат : AC-3 Формат/Информация : Audio Coding 3 Коммерческое название : Dolby Digital Идентификатор кодека : A_AC3 Продолжительность : 1 ч. 36 м. Вид битрейта : Постоянный Битрейт : 448 Кбит/сек Каналы : 6 каналов Channel layout : L R C LFE Ls Rs Частота : 48,0 КГц Частота кадров : 31,250 кадров/сек (1536 SPF) Метод сжатия : С потерями Задержка видео : 2 с. 247 мс. Размер потока : 310 Мбайт (15%) Язык : Russian Service kind : Complete Main Default : Да Forced : Нет Меню 00:00:00.000 : en:Chapter 01 00:03:41.760 : en:Chapter 02 00:08:35.520 : en:Chapter 03 00:12:26.040 : en:Chapter 04 00:18:46.920 : en:Chapter 05 00:23:12.600 : en:Chapter 06 00:28:36.000 : en:Chapter 07 00:33:38.760 : en:Chapter 08 00:38:18.120 : en:Chapter 09 00:43:32.880 : en:Chapter 10 00:47:54.000 : en:Chapter 11 00:52:31.320 : en:Chapter 12 00:56:08.280 : en:Chapter 13 01:00:15.840 : en:Chapter 14 01:03:43.080 : en:Chapter 15 01:08:00.480 : en:Chapter 16 01:11:20.640 : en:Chapter 17 01:15:06.480 : en:Chapter 18 01:18:36.480 : en:Chapter 19 01:22:39.000 : en:Chapter 20 01:25:15.600 : en:Chapter 21 01:30:10.680 : en:Chapter 22 01:31:49.080 : en:Chapter 23 01:33:18.840 : en:Chapter 24
[+] Скриншоты

Всего файлов в раздаче: 1 
Mr_Bones.2001.DVDRip-AVC.ExKinoRay.mkv2.03 GB

Похожие раздачи по запросу - Мистер
2024-02-08 magnet Мистер и миссис Смит / Mr. & Mrs. Smith [S01] (2024) WEB-DL 1080p от Jaskier | P | Jaskier 29.76 GB ↑ 0 ↓ 0
2024-02-06 magnet Мистер и миссис Смит / Mr. & Mrs. Smith [S01] (2024) WEB-DLRip-AVC от DoMiNo & селезень | P | HDrezka Studio 5.28 GB ↑ 0 ↓ 0
2024-02-05 magnet Мистер и миссис Смит / Mr. & Mrs. Smith [S01] (2024) WEB-DL 720p | HDrezka Studio 12.43 GB ↑ 0 ↓ 0
2024-02-05 magnet Мистер и миссис Смит / Mr. & Mrs. Smith [S01] (2024) WEB-DL 1080p | P, L | HDrezka Studio, ColdFilm 30.82 GB ↑ 0 ↓ 0
2024-02-05 magnet Мистер и миссис Смит / Mr. & Mrs. Smith [01x01 из 08] (2024) WEB-DL 1080p от Jaskier | P | Jaskier 4.58 GB ↑ 0 ↓ 0
2024-02-03 magnet Мистер и миссис Смит / Mr. & Mrs. Smith [S01] (2024) WEB-DL 1080p | L | ColdFilm 29.76 GB ↑ 0 ↓ 0
2024-02-03 magnet Мистер и миссис Смит / Mr. & Mrs. Smith [S01] (2024) WEBRip 1080p от Kerob | L2 14.61 GB ↑ 0 ↓ 0

Комментарии


Зарегистрируйтесь чтобы добавить комментарий
Торрент клиент
byTorrent - программа для загрузки торрент-файлов.

Скачать byTorrent.exe (1,5 МБ)

Скачать byTorrent.zip (0,6 МБ)

Поддержи torrent.by
российских рублей
(300 российских рублей это 4$)

Обратная связь rss

End game ©