↑↓torrent.by
Поиск
Логин:  Регистрация
Пароль:

Колония / Double Team (1997) HDTVRip-AVC от New-Team | D

download Скачать торрент-файл   magnet Магнитная ссылка Размер: 1.46 GB Добавлен: 2024-01-31 17:00
Пиры будут получены из сети DHT
Последний сидер был замечен 2024-02-05 16:04
Страна: США Производство: Columbia Pictures, Film Workshop Ltd., Mandalay Entertainment, One Story Pictures Жанр: боевик, триллер, комедия Год выпуска: 1997 Продолжительность: 01:33:00 Перевод: Профессиональный (полное дублирование) Оригинальная аудиодорожка: английский Cубтитры: русский Режиссер: Цуй Харк / Tsui Hark В ролях: Жан-Клод Ван Дамм (Jack Quinn), Дэннис Родман (Yaz,), Микки Рурк (Stavros), Пол Фримен (Goldsmythe), Наташа Линдинжер (Kathryn Quinn), Валерия Кавалли (Dr. Maria Trifioli), Джей Бенедикт (Brandon), Джоэлль Дэво-Вуллион (Stavros' Girlfriend), Бруно Билотта (Kofi), Марио Опинато (James), Грант Расселл (Carney), Уильям Данн (Roger) Подробнее об актерах Роли дублировали: Владимир Герасимов (Jack Quinn), Олег Куценко (Yaz), Рудольф Панков (Stavros), Виктор Петров (Goldsmythe), Ольга Плетнева (Kathryn Quinn), Марина Тарасова (Dr. Maria Trifioli), Александр Рахленко, Дмитрий Филимонов, Андрей Казанцев, Ольга Кузнецова... Описание: Жан-Клод в роли секретного суперагента Джека Куинна. Ему поручают убрать опасного международного террориста Ставроса, но в самый ответственный момент, когда нужно было нажимать на спусковой курок, Ставрос обнимал жену и ребенка. Рука Джека дрогнула, и он упустил врага, хотя жена и сын его погибли. Теперь у Ставроса были и веские личные счеты с теми, кто заказал его убийство. Итак, Джек совершил ошибку, а такое не прощается, и он был помещен в Колонию, став «мертвецом» для всего остального мира, включая собственную семью. Здесь обитали «мертвые» лучшие шпионы и агенты со всей планеты. Они были слишком опасны, чтобы жить, и слишком дорого стоили, чтобы быть убитыми. Их использовали для анализа и отработки экстремальных ситуаций. Однако Куинн не смирился и совершил невероятный побег, чтобы довести задание до конца. Он находит себе партнера, эксцентричного торговца оружием, чернокожего лихого парня с единственной страстью — разрушать. У них разный стиль, но одна задача… Исходник: HDTV 1080p Тип релиза: HDTVRip-AVC Контейнер: MKV Видео: 1024x432 (2,40:1), 23,976 кадра/сек, x264 core 138 r2356 ~ 1471 кбит/сек, 0.139 бит/пиксель Аудио: 48 кГц, Dolby Digital AC3 5.1, 384 кбит/сек DUB Аудио: 48 кГц, Dolby Digital AC3 5.1, 384 кбит/сек Английский Субтитры: SoftSub (srt) Оригинальная навигация по главам: есть Раздача от:
[+] MediaInfo Общее Полное имя : Колония.1997.HDTVRip-AVC__by_AVP_Studio.mkv Формат : Matroska Версия формата : Version 4 Размер файла : 1,46 Гбайт Продолжительность : 1 ч. 33 м. Общий поток : 2 241 Кбит/сек Частота кадров : 23,976 кадра/сек Дата кодирования : 2024-01-30 10:04:55 UTC Программа кодирования : mkvmerge v82.0 ('I'm The President') 64-bit Библиотека кодирования : libebml v1.4.5 + libmatroska v1.7.1 Видео Идентификатор : 1 Формат : AVC Формат/Информация : Advanced Video Codec Профиль формата : High@L4.1 Настройки формата : CABAC / 8 Ref Frames Параметр CABAC формата : Да Параметр RefFrames формата : 8 кадров Идентификатор кодека : V_MPEG4/ISO/AVC Продолжительность : 1 ч. 33 м. Битрейт : 1 471 Кбит/сек Ширина : 1 024 пикселя Высота : 432 пикселя Соотношение сторон : 2,39:1 Режим частоты кадров : Постоянный Частота кадров : 23,976 (24000/1001) кадра/сек Цветовое пространство : YUV Субдискретизация насыщенности : 4:2:0 Битовая глубина : 8 бит Тип развёртки : Прогрессивная Бит/(Пиксели*Кадры) : 0.139 Размер потока : 978 Мбайт (66%) Заголовок : Исходник HDTV 1080p Библиотека кодирования : x264 core 138 r2356 a1d3d17 Настройки программы : cabac=1 / ref=8 / deblock=1:-3:-2 / analyse=0x3:0x113 / me=umh / subme=10 / psy=1 / psy_rd=1.00:0.05 / mixed_ref=1 / me_range=32 / chroma_me=1 / trellis=2 / 8x8dct=1 / cqm=0 / deadzone=21,11 / fast_pskip=0 / chroma_qp_offset=-3 / threads=6 / lookahead_threads=1 / sliced_threads=0 / nr=0 / decimate=0 / interlaced=0 / bluray_compat=0 / constrained_intra=0 / bframes=8 / b_pyramid=2 / b_adapt=2 / b_bias=0 / direct=3 / weightb=1 / open_gop=0 / weightp=2 / keyint=240 / keyint_min=24 / scenecut=40 / intra_refresh=0 / rc_lookahead=40 / rc=2pass / mbtree=1 / bitrate=1471 / ratetol=1.0 / qcomp=0.60 / qpmin=0 / qpmax=69 / qpstep=4 / cplxblur=20.0 / qblur=0.5 / ip_ratio=1.40 / aq=1:1.00 Язык : English Default : Да Forced : Нет Аудио #1 Идентификатор : 2 Формат : AC-3 Формат/Информация : Audio Coding 3 Коммерческое название : Dolby Digital Идентификатор кодека : A_AC3 Продолжительность : 1 ч. 33 м. Вид битрейта : Постоянный Битрейт : 384 Кбит/сек Каналы : 6 каналов Channel layout : L R C LFE Ls Rs Частота : 48,0 КГц Частота кадров : 31,250 кадров/сек (1536 SPF) Метод сжатия : С потерями Размер потока : 255 Мбайт (17%) Заголовок : Профессиональный (дублированный) Язык : Russian Default : Да Forced : Нет Аудио #2 Идентификатор : 3 Формат : AC-3 Формат/Информация : Audio Coding 3 Коммерческое название : Dolby Digital Идентификатор кодека : A_AC3 Продолжительность : 1 ч. 33 м. Вид битрейта : Постоянный Битрейт : 384 Кбит/сек Каналы : 6 каналов Channel layout : L R C LFE Ls Rs Частота : 48,0 КГц Частота кадров : 31,250 кадров/сек (1536 SPF) Метод сжатия : С потерями Размер потока : 255 Мбайт (17%) Заголовок : Оригинал Язык : English Default : Нет Forced : Нет Текст Идентификатор : 4 Формат : UTF-8 Идентификатор кодека : S_TEXT/UTF8 Идентификатор кодека/Информация : UTF-8 Plain Text Продолжительность : 1 ч. 28 м. Битрейт : 39 бит/сек Частота кадров : 0,076 кадр/сек Count of elements : 403 Размер потока : 25,7 Кбайт (0%) Заголовок : SRT Язык : Russian Default : Нет Forced : Нет Меню 00:00:00.000 : en:00:00:00.000 00:04:16.965 : en:00:04:16.965 00:07:59.813 : en:00:07:59.813 00:11:20.221 : en:00:11:20.221 00:22:13.833 : en:00:22:13.833 00:32:42.377 : en:00:32:42.377 00:41:23.731 : en:00:41:23.731 00:47:17.752 : en:00:47:17.752 00:54:45.324 : en:00:54:45.324 01:07:15.448 : en:01:07:15.448 01:17:34.358 : en:01:17:34.358
[+] Скриншоты

Всего файлов в раздаче: 1 
Колония.1997.HDTVRip-AVC_[New-team]_by_AVP_Studio.mkv1.46 GB

Похожие раздачи по запросу - Колония
2024-02-01 magnet Колония / Double Team (1997) BDRip 720p от New-Team | D, P, A 2.91 GB ↑ 0 ↓ 0
2024-01-09 magnet Колония / Double Team (1997) BDRip 1080p | D, P, A | GER Transfer 10.23 GB ↑ 0 ↓ 0

Комментарии

Spine
Спасибо Вам Большое за фильм!!!


Зарегистрируйтесь чтобы добавить комментарий
Торрент клиент
byTorrent - программа для загрузки торрент-файлов.

Скачать byTorrent.exe (1,5 МБ)

Скачать byTorrent.zip (0,6 МБ)

Поддержи torrent.by
российских рублей
(300 российских рублей это 4$)

Обратная связь rss

End game ©